<?xml version="1.0" standalone="no"?>
<!DOCTYPE svg PUBLIC "-//W3C//DTD SVG 1.1//EN" "http://www.w3.org/Graphics/SVG/1.1/DTD/svg11.dtd" >
<svg>
<metadata>
Created by FontForge 20120702 at Tue Feb 19 19:08:13 2013

Copyright (c) 2011 by Anna Giedrys (http://ancymonic.com), with Reserved Font Names "Signika".
</metadata>
<defs>
<font id="Signika-Semibold" horiz-adv-x="398" >
  <font-face 
    font-family="Signika"
    font-weight="600"
    font-stretch="normal"
    units-per-em="1000"
    panose-1="2 1 0 3 2 6 0 0 0 4"
    ascent="800"
    descent="-200"
    x-height="496"
    cap-height="688"
    bbox="-124 -278 977 921"
    underline-thickness="50"
    underline-position="-100"
    unicode-range="U+000D-20AC"
  />
<missing-glyph horiz-adv-x="0" 
 />
    <glyph glyph-name=".notdef" horiz-adv-x="0" 
 />
    <glyph glyph-name=".notdef.001" horiz-adv-x="186" 
 />
    <glyph glyph-name="nonmarkingreturn" horiz-adv-x="333" 
 />
    <glyph glyph-name="CR.001" unicode="&#xd;" horiz-adv-x="186" 
 />
    <glyph glyph-name="space" unicode=" " horiz-adv-x="220" 
 />
    <glyph glyph-name="exclam" unicode="!" horiz-adv-x="298" 
d="M96 202l-17 452q49 37 139 37l8 -10l-30 -479q-21 -6 -51 -6q-14 0 -27 1.5t-22 4.5zM80 110q14 8 31 11.5t35 3.5t35 -3.5t31 -11.5q10 -17 10 -53q0 -24 -4.5 -40t-14.5 -18.5t-24.5 -5.5t-32.5 -3t-38.5 4.5t-24.5 7.5t-8 16.5t-4 38.5q0 36 9 53z" />
    <glyph glyph-name="quotedbl" unicode="&#x22;" horiz-adv-x="421" 
d="M250 765q25 15 61 15t60 -15q7 -30 7 -46t-6 -47q-19 -98 -28 -172q-11 -7 -33 -7t-33 7q-8 71 -21 137t-13 84.5t6 43.5zM50 765q25 15 61 15t60 -15q7 -30 7 -46t-6 -47q-19 -98 -28 -172q-11 -7 -33 -7t-33 7q-8 71 -21 137t-13 84.5t6 43.5z" />
    <glyph glyph-name="numbersign" unicode="#" horiz-adv-x="683" 
d="M447 515l30 130q22 9 59.5 9t56.5 -9l-30 -130h96q8 -23 8 -53t-8 -52h-119l-37 -162h105q19 -53 0 -105h-128l-29 -130q-22 -10 -59.5 -10t-56.5 10l29 130h-122l-29 -130q-21 -10 -58.5 -10t-57.5 10l29 130h-98q-8 22 -8 52t8 53h121l37 162h-107q-19 52 0 105h130
l30 130q22 9 59 9t57 -9l-30 -130h122zM302 410l-37 -162h122l37 162h-122z" />
    <glyph glyph-name="dollar" unicode="$" horiz-adv-x="505" 
d="M27 96q0 13 4.5 28t11.5 28.5t16 24.5t18 17q103 -55 179 -55q35 0 57 14t22 39q0 23 -14.5 37.5t-43.5 25.5l-97 35q-129 49 -129 154q0 63 41 107.5t110 56.5v81q15 4 48 4q35 0 50 -4v-80q79 -8 157 -43q0 -28 -13 -56.5t-33 -45.5q-90 40 -156 40q-32 0 -50.5 -13.5
t-18.5 -35.5q0 -21 13.5 -31.5t43.5 -21.5l94 -35q136 -51 136 -167q0 -66 -48.5 -110.5t-128.5 -54.5v-75q-14 -3 -50 -3t-48 3v77q-104 13 -171 59z" />
    <glyph glyph-name="percent" unicode="%" horiz-adv-x="950" 
d="M853 366q51 -51 51 -168q0 -108 -43 -159.5t-122 -51.5q-77 0 -121 50t-44 161q0 60 13 100.5t35.5 65t52.5 35.5t64 11q70 0 114 -44zM702 308q-6 -9 -10 -19.5t-6.5 -24.5t-3 -32.5t-0.5 -43.5q0 -24 2.5 -45.5t8.5 -37.5t17 -25.5t29 -9.5t29 9.5t17 26t8.5 38
t2.5 44.5q0 31 -2 56.5t-8 44t-18 28.5t-31 10q-20 0 -35 -19zM325 652q51 -50 51 -168q0 -109 -43 -160t-121 -51q-35 0 -65.5 10.5t-53 35.5t-35 65t-12.5 100t13 100.5t35.5 65t52.5 35.5t64 11q70 0 114 -44zM174 594q-6 -9 -10 -19.5t-6.5 -24.5t-3 -32.5t-0.5 -43.5
q0 -24 2.5 -45.5t8.5 -37.5t17 -25.5t29 -9.5t29 9.5t17 26t8.5 38t2.5 44.5q0 31 -2 56.5t-8 44t-18 28.5t-31 10q-20 0 -35 -19zM223 0l377 683q27 6 68 6t59 -6l-378 -683q-26 -6 -68 -6t-58 6z" />
    <glyph glyph-name="ampersand" unicode="&#x26;" horiz-adv-x="640" 
d="M518 304l1 -148q0 -29 1.5 -68t5.5 -88q-14 -5 -29 -6.5t-32 -1.5q-16 0 -31.5 1.5t-28.5 5.5l-9 42q-67 -55 -159 -55q-45 0 -81 15t-60.5 40.5t-37.5 59t-13 70.5q0 38 10 69.5t27.5 56.5t41 42t50.5 26q-45 16 -72.5 56.5t-27.5 94.5q0 40 15 73.5t43.5 57.5t69 37
t90.5 13q101 0 194 -32q0 -30 -8 -54.5t-26 -45.5q-42 14 -76 20.5t-61 6.5q-54 0 -78.5 -23.5t-24.5 -62.5q0 -90 111 -90h189q59 0 101 17q17 -20 17 -61q0 -68 -85 -68h-27zM390 242v35.5t1 26.5h-79q-64 0 -97 -31t-33 -82t24.5 -76.5t66.5 -25.5q68 0 117 43v110z" />
    <glyph glyph-name="quotesingle" unicode="'" horiz-adv-x="227" 
d="M48 765q26 15 61.5 15t59.5 -15q7 -30 7 -46t-6 -47q-19 -98 -28 -172q-11 -7 -33 -7t-33 7q-8 71 -21 137t-13 84.5t6 43.5z" />
    <glyph glyph-name="parenleft" unicode="(" horiz-adv-x="354" 
d="M336 -120q-22 -51 -76 -69q-47 46 -84.5 105.5t-63 127t-39 139t-13.5 140.5t13.5 141t39.5 139.5t63 127.5t84 105q54 -18 76 -69q-69 -94 -103.5 -210t-34.5 -234q0 -117 34.5 -233t103.5 -210z" />
    <glyph glyph-name="parenright" unicode=")" horiz-adv-x="354" 
d="M18 767q22 51 76 69q47 -45 84.5 -105t63 -128t39 -139.5t13.5 -140.5q0 -68 -14 -140t-39 -139.5t-63 -127.5t-84 -105q-54 18 -76 69q69 94 103.5 210t34.5 233q0 118 -34.5 234t-103.5 210z" />
    <glyph glyph-name="asterisk" unicode="*" horiz-adv-x="513" 
d="M40 534q-2 21 9 54.5t25 48.5l56 -20q37 -14 96 -56q-21 76 -22 109l-2 60q19 8 54 8t54 -8l-2 -60q-2 -29 -22 -108q54 38 96 53l57 21q13 -15 24 -48t10 -54l-59 -17q-33 -10 -109 -12q59 -49 80 -75l37 -47q-10 -17 -38 -38t-49 -26l-33 50q-18 27 -46 99
q-23 -64 -46 -98l-33 -50q-20 4 -48.5 24.5t-39.5 38.5l37 47q21 28 81 75q-72 2 -109 13z" />
    <glyph glyph-name="plus" unicode="+" horiz-adv-x="530" 
d="M209 349l-1 60v103q24 5 57 5t57 -5v-103l-1 -60l59 1h96q5 -32 5 -56t-5 -51h-96l-59 1l1 -58v-104q-24 -5 -57 -5t-57 5v104l1 58l-59 -1h-96q-5 20 -5 53t5 54h96z" />
    <glyph glyph-name="comma" unicode="," horiz-adv-x="283" 
d="M211 116q12 -29 12 -73q0 -35 -11 -68t-31.5 -61.5t-51 -50.5t-69.5 -34q-16 8 -25 23t-8 39q36 14 60.5 40.5t28.5 60.5q-36 5 -44.5 20t-8.5 50q0 25 4 37t11 18.5t28 10.5t39 4q44 0 66 -16z" />
    <glyph glyph-name="hyphen" unicode="-" horiz-adv-x="364" 
d="M314 214h-265q-6 22 -6 54t6 54h265q6 -22 6 -54t-6 -54z" />
    <glyph glyph-name="period" unicode="." horiz-adv-x="275" 
d="M67 6q-5 11 -7.5 25.5t-2.5 29.5q0 16 2.5 30.5t7.5 25.5q32 16 70 16q39 0 71 -16q10 -23 10 -56q0 -32 -10 -55q-25 -16 -70 -16t-71 16z" />
    <glyph glyph-name="slash" unicode="/" horiz-adv-x="437" 
d="M4 -73l315 838q66 -7 112 -43l-315 -837q-65 5 -112 42z" />
    <glyph glyph-name="zero" unicode="0" horiz-adv-x="530" 
d="M110 600q60 62 155 62q61 0 104 -22.5t72 -66t40 -106.5t11 -143q0 -81 -11 -143.5t-39.5 -106t-72 -66t-104.5 -22.5q-62 0 -105 22.5t-71.5 66t-39.5 106t-11 143.5q0 50 3 90.5t11.5 74t22.5 60.5t35 51zM201 124q19 -37 64 -37q24 0 41.5 10.5t28.5 37t16.5 72.5
t5.5 117t-5.5 117t-16.5 72.5t-28.5 37t-41.5 10.5t-41.5 -10.5t-28.5 -37t-16.5 -72.5t-5.5 -117q0 -156 28 -200z" />
    <glyph glyph-name="one" unicode="1" horiz-adv-x="530" 
d="M231 107l-1 71v177q0 29 6 119q-56 -65 -138 -100q-45 23 -55 77q141 88 192 197q28 5 61 5t62 -5v-470l-1 -71l64 1h61q6 -24 6 -53t-6 -55h-398q-6 26 -6 55t6 53h87z" />
    <glyph glyph-name="two" unicode="2" horiz-adv-x="530" 
d="M482 112q0 -56 -17.5 -84.5t-67.5 -28.5h-304q-48 48 -48 81q0 77 120 184l103 92q63 55 63 114q0 38 -22.5 61.5t-59.5 23.5t-63.5 -26t-39.5 -66q-27 1 -54.5 12t-39.5 29q10 34 29.5 63t47.5 50t63.5 33t77.5 12t77.5 -14t61.5 -39.5t41 -61.5t15 -80q0 -31 -8 -57
t-23 -50t-38 -47.5t-53 -49.5l-74 -63q-74 -63 -90 -97q78 9 143 9h160z" />
    <glyph glyph-name="three" unicode="3" horiz-adv-x="530" 
d="M432 513l-90 -94q-16 -16 -33 -28q39 -3 71 -17t55 -38.5t35.5 -60t12.5 -81.5t-18.5 -84.5t-50 -66t-74 -42.5t-91.5 -15q-128 0 -207 69q11 51 56 86q64 -49 125 -49q64 0 95 31.5t31 84.5q0 27 -9 46t-23.5 31t-33 17.5t-37.5 5.5q-33 0 -58 -14q-17 7 -31 27t-19 43
l108 115q45 45 68 63l-4 6q-38 -11 -106 -11h-131q-8 24 -8 52q0 15 2.5 30t8.5 29h355q27 -50 27 -79q0 -16 -6.5 -29t-19.5 -27z" />
    <glyph glyph-name="four" unicode="4" horiz-adv-x="530" 
d="M407 126l1 -63v-63q-29 -5 -64.5 -5t-62.5 5v63l1 63l-64 -2h-160q-29 47 -29 74t19 71l165 386q28 6 66.5 -2t53.5 -24l-90 -211q-51 -128 -90 -186l3 -4q58 6 124 6h1v80q0 48 23.5 75.5t65.5 27.5h32l6 -6v-114l-1 -63l52 1h39q4 -21 4 -50t-9 -59h-86z" />
    <glyph glyph-name="five" unicode="5" horiz-adv-x="530" 
d="M208 538l-8 -117q36 11 70 11q48 0 87 -15t66 -42t41.5 -66t14.5 -87q0 -57 -18 -101t-52 -74t-77.5 -45.5t-91.5 -15.5q-120 0 -194 67q4 20 20 46t34 40q35 -25 67.5 -36.5t60.5 -11.5q56 0 86 36t30 95q0 53 -31.5 81t-76.5 28q-25 0 -51 -9t-50 -28q-17 4 -36 17
t-29 28l16 302l8 7h351q9 -24 9 -54q0 -56 -56 -56h-190z" />
    <glyph glyph-name="six" unicode="6" horiz-adv-x="530" 
d="M108 56q-9 13 -15 19l-16 30q-20 44 -28 99t-8 119q0 79 18 142t52 106.5t83 67t112 23.5q92 0 155 -33q-4 -61 -44 -91q-50 21 -101 21q-130 0 -139 -173q60 48 139 48t127.5 -54t48.5 -162q0 -53 -16.5 -96t-46.5 -73t-71.5 -46.5t-91.5 -16.5q-100 0 -158 70zM177 272
q0 -188 96 -188q45 0 66.5 33.5t21.5 90.5q0 120 -85 120q-52 0 -99 -43v-13z" />
    <glyph glyph-name="seven" unicode="7" horiz-adv-x="530" 
d="M64 648h403q24 -52 24 -78t-19 -53l-36 -52q-70 -100 -108 -200t-50 -224l-3 -41q-21 -5 -65 -5t-69 5l4 45q21 231 151 411l12 16q30 43 60 71l-4 5q-43 -11 -145 -11h-161q-6 19 -6 51t12 60z" />
    <glyph glyph-name="eight" unicode="8" horiz-adv-x="530" 
d="M35 164q0 54 31.5 98t80.5 72q-96 58 -96 154q0 37 16.5 69t45.5 55t68 36.5t85 13.5t85 -12.5t67 -35t43.5 -54t15.5 -69.5q0 -89 -95 -142q113 -63 113 -178q0 -43 -18.5 -77.5t-50.5 -58.5t-75.5 -36.5t-92.5 -12.5q-51 0 -92 12t-70 35t-45 56t-16 75zM236 294h-1
q-68 -48 -68 -121q0 -43 27 -69t70 -26t70 26t27 68q0 78 -103 114zM180 489q0 -65 99 -96l13 -5q58 37 58 98q0 37 -24 59.5t-61 22.5t-61 -22.5t-24 -56.5z" />
    <glyph glyph-name="nine" unicode="9" horiz-adv-x="530" 
d="M422 592q26 -36 35 -58t16.5 -55.5t11.5 -73.5t4 -80q0 -77 -17.5 -140t-51.5 -107t-83 -68t-113 -24q-92 0 -155 33q4 61 44 91q49 -21 101 -21q67 0 101 46t37 127q-59 -48 -138 -48t-127.5 53.5t-48.5 161.5q0 54 16.5 97t46.5 73.5t71.5 46.5t91.5 16q100 0 158 -70z
M254 320q52 0 99 42v14q0 101 -26 144.5t-74 43.5q-40 0 -62 -33.5t-22 -90.5q0 -120 85 -120z" />
    <glyph glyph-name="colon" unicode=":" horiz-adv-x="282" 
d="M70 6q-5 11 -7.5 25.5t-2.5 29.5q0 16 2.5 30.5t7.5 25.5q32 16 70 16q39 0 71 -16q10 -23 10 -56q0 -32 -10 -55q-25 -16 -70 -16t-71 16zM70 325q-5 11 -7.5 25.5t-2.5 29.5q0 16 2.5 30.5t7.5 25.5q32 16 70 16q39 0 71 -16q10 -23 10 -56q0 -32 -10 -55
q-25 -16 -70 -16t-71 16z" />
    <glyph glyph-name="semicolon" unicode=";" horiz-adv-x="286" 
d="M210 116q12 -29 12 -73q0 -35 -11 -68t-31.5 -61.5t-51 -50.5t-69.5 -34q-16 8 -25 23t-8 39q36 14 60.5 40.5t28.5 60.5q-36 5 -44.5 20t-8.5 50q0 25 4 40t15.5 19.5t28 7.5t34.5 3q44 0 66 -16zM72 325q-5 11 -7.5 25.5t-2.5 29.5q0 16 2.5 30.5t7.5 25.5q32 16 70 16
q39 0 71 -16q10 -23 10 -56q0 -32 -10 -55q-25 -16 -70 -16t-71 16z" />
    <glyph glyph-name="less" unicode="&#x3c;" horiz-adv-x="530" 
d="M52 346l362 199q24 -14 41.5 -42t18.5 -59l-209 -109q-30 -17 -80 -35v-8q46 -17 80 -34l209 -109q-3 -31 -20 -60.5t-40 -42.5l-362 199q-13 57 0 101z" />
    <glyph glyph-name="equal" unicode="=" horiz-adv-x="530" 
d="M476 138h-422q-5 22 -5 54t5 54h422q5 -23 5 -54.5t-5 -53.5zM476 349h-422q-5 22 -5 53.5t5 54.5h422q5 -23 5 -54t-5 -54z" />
    <glyph glyph-name="greater" unicode="&#x3e;" horiz-adv-x="530" 
d="M478 246l-363 -199q-24 15 -41 43t-18 59l209 109q42 21 80 35v7q-38 14 -80 35l-209 109q2 31 19.5 60t40.5 43l362 -200q13 -55 0 -101z" />
    <glyph glyph-name="question" unicode="?" horiz-adv-x="409" 
d="M6 643q96 54 193 54q99 0 150.5 -47.5t51.5 -128.5q0 -128 -130 -197l-62 -33l-9 -88q-11 -4 -23.5 -5.5t-25.5 -1.5q-14 0 -26.5 1.5t-23.5 5.5l-7 149l10 13l52 25q107 51 107 117q0 32 -21 54.5t-64 22.5q-24 0 -55.5 -8.5t-69.5 -27.5q-9 7 -17.5 18t-15 24t-10.5 27
t-4 26zM86 108q24 15 65 15q18 0 34.5 -3.5t25.5 -8t12.5 -18.5t3.5 -38q0 -25 -4 -39.5t-14.5 -18t-25 -6.5t-32.5 -3t-37.5 4t-24.5 7.5t-9 17.5t-4 38q0 36 10 53z" />
    <glyph glyph-name="at" unicode="@" horiz-adv-x="965" 
d="M680 412l-1 -251q0 -60 36 -60q37 0 61 46.5t24 149.5q0 66 -21.5 119t-61 90.5t-96.5 58t-127 20.5t-128.5 -27t-101 -75t-66 -114.5t-23.5 -144.5t20 -138t57 -100.5t90.5 -61t120.5 -20.5q104 0 200 38q33 -36 33 -90q-116 -48 -242 -48q-92 0 -167.5 27t-129.5 79.5
t-83.5 130t-29.5 179.5t34.5 186.5t95 146t142.5 95.5t178 34t176 -27t137 -77.5t89 -122.5t32 -162q0 -69 -17.5 -123t-46.5 -90.5t-67.5 -55.5t-81.5 -19q-86 0 -130 59q-65 -63 -140 -63q-76 0 -117.5 61.5t-41.5 169.5q0 54 14 100.5t41 80t66 52.5t89 19
q54 0 103.5 -21t80.5 -51zM476 100q40 0 81 45v223q-26 23 -61 23q-85 0 -85 -159q0 -132 65 -132z" />
    <glyph glyph-name="A" unicode="A" horiz-adv-x="625" 
d="M426 155l-49 -1h-140l-49 1l-47 -156q-21 -5 -59.5 -5t-62.5 9l-5 7l223 673q37 5 80 5t75 -6l219 -673q-29 -17 -69.5 -17t-58 15t-29.5 57zM221 261l45 1h86l42 -1l-30 102q-34 114 -54 194h-6q-9 -43 -44 -169z" />
    <glyph glyph-name="B" unicode="B" horiz-adv-x="610" 
d="M90 684q78 2 132.5 3t86.5 1q109 0 168 -46.5t59 -134.5q0 -46 -25 -84t-67 -55q25 -8 48 -24.5t40 -40t26.5 -51.5t9.5 -58q0 -96 -63 -147.5t-181 -51.5q-37 0 -95 1t-139 3l-7 6v673zM314 309h-98v-218q19 1 43 0.5t48 0.5t46.5 4.5t40 16.5t28 34t10.5 54
q0 21 -7 40.5t-21 34.5t-36.5 24t-53.5 9zM216 591v-183h87q100 0 100 92q0 38 -14.5 57t-40.5 26t-60.5 6.5t-71.5 1.5z" />
    <glyph glyph-name="C" unicode="C" horiz-adv-x="606" 
d="M446 428v10q0 33 -7 60.5t-22 48t-38.5 32t-56.5 11.5q-73 0 -106 -65.5t-33 -198.5q0 -106 40.5 -164.5t110.5 -58.5q37 0 80.5 17.5t93.5 55.5q21 -14 40 -39t24 -48q-22 -22 -51.5 -40.5t-63.5 -32.5t-71 -22t-74 -8q-74 0 -125 28.5t-83.5 77t-47 112.5t-14.5 135
q0 90 22 157.5t59.5 112t88 67t107.5 22.5q59 0 106.5 -16t80.5 -43.5t51 -64t18 -78.5q0 -75 -76 -75q-11 0 -24 1.5t-29 5.5z" />
    <glyph glyph-name="D" unicode="D" horiz-adv-x="658" 
d="M505 45q-30 -26 -81.5 -38t-105.5 -12q-27 0 -83.5 1t-144.5 3l-7 6v673l7 6q58 2 116.5 3t119.5 1q84 0 139.5 -27t88.5 -74.5t46.5 -110.5t13.5 -135q0 -100 -22.5 -172.5t-86.5 -123.5zM450 502q-30 80 -124 80h-62t-47 1v-483q19 1 43.5 1t49.5 1t46.5 4t35.5 10
q26 14 42.5 37.5t25.5 54t12.5 66t3.5 73.5q0 43 -5.5 80t-20.5 75z" />
    <glyph glyph-name="E" unicode="E" horiz-adv-x="570" 
d="M215 171l-1 -62l70 2h245q0 -32 -3 -49q-11 -64 -86 -64h-281q-36 0 -56.5 21.5t-20.5 58.5v598l7 7h417q5 -25 5 -53.5t-11 -59.5h-286l1 -69v-103l65 1h169q8 -23 8 -55t-8 -55h-234v-118z" />
    <glyph glyph-name="F" unicode="F" horiz-adv-x="529" 
d="M217 0q-27 -5 -66.5 -5t-67.5 5v677l7 6h412q6 -23 6 -54t-17.5 -45.5t-55.5 -14.5h-219l1 -97v-75h228q7 -22 7 -54.5t-7 -56.5h-228v-286z" />
    <glyph glyph-name="G" unicode="G" horiz-adv-x="649" 
d="M345 374l155 1q92 0 92 -85v-262q-119 -42 -261 -42q-72 0 -126.5 25t-90.5 71t-54 111t-18 144q0 92 26 160t69 112.5t99.5 66t118.5 21.5q128 0 235 -72q-3 -29 -21.5 -56.5t-40.5 -41.5q-80 57 -168 57q-180 0 -180 -245t179 -245q55 0 106 12v89q0 22 0.5 38.5
t1.5 27.5h-68q-35 0 -49.5 14t-14.5 45q0 26 10 54z" />
    <glyph glyph-name="H" unicode="H" horiz-adv-x="681" 
d="M464 408l-1 74v201q26 5 66.5 5t68.5 -5v-683q-29 -5 -68.5 -5t-66.5 5v223l1 74l-53 -1h-141l-54 1l1 -74v-223q-26 -5 -67 -5t-67 5v683q26 5 67 5t67 -5v-201l-1 -74l54 1h141z" />
    <glyph glyph-name="I" unicode="I" horiz-adv-x="306" 
d="M86 0v683q25 5 65.5 5t68.5 -5v-683q-28 -5 -68.5 -5t-65.5 5z" />
    <glyph glyph-name="J" unicode="J" horiz-adv-x="460" 
d="M58 133q53 -32 103 -32q51 0 72 33.5t21 106.5v442q28 5 67 5t67 -5v-427q0 -60 -9.5 -109t-34.5 -84.5t-67 -54t-108 -18.5q-89 0 -159 43q10 56 48 100z" />
    <glyph glyph-name="K" unicode="K" horiz-adv-x="609" 
d="M598 34q-28 -42 -90 -42q-35 0 -52.5 18t-31.5 61l-46 131q-18 52 -41.5 73.5t-63.5 21.5q-10 0 -56 -2v-295q-26 -5 -67 -5t-67 5v683q26 5 67 5t67 -5v-275l40 1q16 0 24 6.5t18 24.5l111 198q15 27 30 38.5t42 11.5t81 -4l8 -10l-136 -243q-23 -41 -49 -62
q47 -10 72 -38.5t44 -79.5l47 -134q7 -18 8.5 -21.5t6.5 -15.5q14 -28 22 -35t12 -11z" />
    <glyph glyph-name="L" unicode="L" horiz-adv-x="517" 
d="M308 114h186q0 -30 -4 -51q-11 -65 -87 -65h-243q-36 0 -57 21.5t-21 58.5v604l7 7h50q40 0 59 -20.5t19 -65.5v-493q43 4 91 4z" />
    <glyph glyph-name="M" unicode="M" horiz-adv-x="821" 
d="M64 2l53 680q41 7 88.5 7t86.5 -7l77 -277q31 -124 38 -171h7q7 47 38 171l76 277q42 7 88 7t88 -7l53 -680q-27 -7 -64.5 -7t-62.5 4l-19 321q-8 124 -8 217h-7l-117 -435q-33 -5 -68.5 -5t-68.5 5l-117 435h-7q-2 -123 -8 -217l-19 -321q-25 -4 -62.5 -4t-64.5 7z" />
    <glyph glyph-name="N" unicode="N" horiz-adv-x="688" 
d="M598 689l7 -7v-680q-31 -7 -78 -7t-82 5l-184 387q-40 88 -60 140l-4 -1q11 -141 11 -272v-254q-28 -5 -63.5 -5t-61.5 5v681q29 7 76 7t82 -5l182 -387l65 -148l3 1q-10 145 -10 274v183q0 45 17 64t57 19h43z" />
    <glyph glyph-name="O" unicode="O" horiz-adv-x="662" 
d="M479 341q0 251 -148 251t-148 -251q0 -250 148 -250t148 250zM149 47q-107 92 -107 294q0 85 19.5 151t57 111.5t91 69.5t122.5 24q68 0 121.5 -24t90.5 -69.5t56.5 -112t19.5 -150.5t-19.5 -150t-56.5 -111.5t-90.5 -69.5t-121.5 -24q-109 0 -183 61z" />
    <glyph glyph-name="P" unicode="P" horiz-adv-x="579" 
d="M309 227h-92v-227q-28 -5 -67 -5t-67 5v678l7 6q81 2 135.5 3t83.5 1q108 0 172.5 -59t64.5 -171q0 -56 -17 -99t-48 -72t-74.5 -44.5t-97.5 -15.5zM217 584v-255q39 1 66.5 1t47 3.5t33 13t24.5 28.5q10 17 15 38.5t5 43.5q0 23 -5 45.5t-17 40.5t-32 29t-50 11h-50.5
t-36.5 1z" />
    <glyph glyph-name="Q" unicode="Q" horiz-adv-x="662" 
d="M444 -103l-110 89q-73 0 -127 24.5t-90.5 70t-55.5 111.5t-19 150t19 149.5t55.5 111.5t90 70t122.5 24q70 0 124 -24t91 -69.5t55.5 -111.5t18.5 -151q0 -120 -38.5 -202t-106.5 -111l24 -17q72 -52 126 -51q0 -45 -26 -71t-67 -26q-20 0 -42.5 8t-43.5 26zM330 592
q-149 0 -149 -250t149 -250t149 250t-149 250z" />
    <glyph glyph-name="R" unicode="R" horiz-adv-x="608" 
d="M553 477q0 -33 -9.5 -62.5t-26.5 -53t-39.5 -41t-49.5 -26.5q26 -9 43.5 -31t30.5 -57l37 -101q9 -25 20 -43t27 -30q-13 -18 -37.5 -29t-55.5 -11q-30 0 -48 18t-33 61l-42 119q-13 35 -33 53.5t-60 18.5h-61v-262q-14 -2 -31 -3.5t-37 -1.5q-37 0 -65 5v678l7 6
q81 2 137.5 3t90.5 1q108 0 171.5 -54t63.5 -157zM216 586v-220q52 3 92 3q107 0 107 108t-107 108h-53.5t-38.5 1z" />
    <glyph glyph-name="S" unicode="S" horiz-adv-x="556" 
d="M22 60q3 28 18.5 56.5t35.5 45.5q103 -66 202 -66q48 0 76 22.5t28 56.5q-2 58 -77 91l-118 50q-70 29 -105 74.5t-35 104.5q0 45 17.5 82t50 63.5t77 41.5t98.5 15q110 0 216 -55q-3 -61 -47 -102q-101 48 -176 48q-48 0 -73.5 -22t-25.5 -54q0 -46 71 -76l118 -50
q72 -30 111 -79t39 -113q0 -45 -16 -83.5t-48.5 -66t-81 -43t-114.5 -15.5q-128 0 -241 74z" />
    <glyph glyph-name="T" unicode="T" horiz-adv-x="501" 
d="M318 572l1 -74v-498q-29 -5 -67.5 -5t-67.5 5v498l1 74l-61 -1h-111q-5 25 -5 56t5 56h478q7 -25 7 -54.5t-17 -43.5t-55 -14h-47l-61 1v0z" />
    <glyph glyph-name="U" unicode="U" horiz-adv-x="671" 
d="M597 683v-437q0 -125 -68.5 -192.5t-193.5 -67.5q-124 0 -192.5 67.5t-68.5 192.5v436l6 7h50q40 0 59 -20.5t19 -65.5v-358q0 -152 127 -152q128 0 128 152v438q28 5 67 5t67 -5z" />
    <glyph glyph-name="V" unicode="V" horiz-adv-x="591" 
d="M308 115l145 568q19 5 56 5t64 -9l6 -8l-193 -671q-40 -5 -91.5 -5t-73.5 12.5t-32 49.5l-175 614q45 20 78 20t50 -15.5t26 -50.5l90 -322q21 -77 41 -177q2 -11 9 -11z" />
    <glyph glyph-name="W" unicode="W" horiz-adv-x="878" 
d="M144 57l-122 618q35 16 71 16t52 -15.5t23 -57.5l52 -298q22 -126 26 -165.5t5.5 -41t7.5 -1.5l95 557q38 7 88 7t85 -7l87 -545q2 -12 10 -12q10 85 33 210l66 361q25 5 61 5t63 -9l7 -8l-138 -670q-46 -6 -99 -6t-73.5 12t-25.5 50l-41 241q-23 139 -34 239h-8
q-13 -98 -38 -239l-53 -297q-48 -6 -99 -6t-72 12t-29 50z" />
    <glyph glyph-name="X" unicode="X" horiz-adv-x="602" 
d="M439 683q22 5 58.5 5t67.5 -11l3 -8l-190 -310l211 -338q-43 -30 -91 -30t-83 54l-124 199l-146 -244q-23 -5 -59 -5t-69 11l-4 8l210 341l-190 307q43 30 90.5 30t81.5 -53l105 -170z" />
    <glyph glyph-name="Y" unicode="Y" horiz-adv-x="523" 
d="M316 485l79 198q23 5 58 5t63 -9l5 -8l-192 -458v-213q-26 -5 -67 -5t-67 5v217l-192 450q42 24 76 24t50 -13t28 -43l63 -154q26 -68 43 -134h6q16 58 47 138z" />
    <glyph glyph-name="Z" unicode="Z" horiz-adv-x="571" 
d="M59 135l237 341q36 51 80 101l-3 3q-64 -8 -155 -8h-152q-5 20 -5 48t9 63h428q19 -65 19 -87.5t-16 -45.5l-236 -340q-39 -54 -79 -100l3 -3q86 6 136 6h79q70 0 115 21q10 -28 10 -62.5t-24 -53t-66 -18.5h-381q-16 67 -16 88t17 47z" />
    <glyph glyph-name="bracketleft" unicode="[" horiz-adv-x="370" 
d="M334 -149l-227 -8l-8 7v965l8 7l227 -8q4 -13 4 -41t-10 -50l-101 -3v-775l101 -3q10 -22 10 -50t-4 -41z" />
    <glyph glyph-name="backslash" unicode="\" horiz-adv-x="437" 
d="M321 -115l-315 837q46 36 112 43l315 -838q-45 -35 -112 -42z" />
    <glyph glyph-name="bracketright" unicode="]" horiz-adv-x="370" 
d="M263 -157l-226 8q-5 13 -5 38t10 53l101 3v775l-101 3q-10 27 -10 53t5 38l226 8l8 -7v-965z" />
    <glyph glyph-name="asciicircum" unicode="^" horiz-adv-x="530" 
d="M335 648l159 -342q-23 -6 -62 -6.5t-64 6.5l-64 146q-1 1 -35 96h-8q-34 -93 -35 -96l-64 -146q-25 -7 -64 -6.5t-62 6.5l159 342q23 6 70 6t70 -6z" />
    <glyph glyph-name="underscore" unicode="_" horiz-adv-x="548" 
d="M549 -166h-550q-5 20 -5 49t5 50h550q5 -21 5 -50t-5 -49z" />
    <glyph glyph-name="grave" unicode="`" 
d="M142 755l149 -164q-7 -18 -22.5 -32.5t-32.5 -19.5l-178 136q8 25 33 48t51 32z" />
    <glyph glyph-name="a" unicode="a" horiz-adv-x="510" 
d="M473 60q-5 -18 -18 -38t-26 -30q-65 8 -95 57q-65 -63 -142 -63q-39 0 -68.5 12.5t-49 33.5t-29 48t-9.5 56q0 42 14.5 73.5t41 52.5t62 32t77.5 11q54 0 84 -3v27q0 76 -74 76q-50 0 -152 -35q-28 31 -34 93q106 45 219 45q75 0 123 -42t48 -127v-205q0 -53 28 -74z
M221 85q50 0 94 44v87q-16 1 -31 2t-29 1q-44 0 -67 -16.5t-23 -54.5q0 -30 15 -46.5t41 -16.5z" />
    <glyph glyph-name="b" unicode="b" horiz-adv-x="531" 
d="M69 25v704l6 7h49q39 0 55.5 -18t16.5 -63v-191q55 42 124 42q86 0 130.5 -70t44.5 -192q0 -57 -17.5 -103.5t-48.5 -79.5t-74.5 -51t-95.5 -18q-105 0 -190 33zM284 399q-26 0 -47 -10.5t-41 -33.5v-260q34 -8 63 -8q49 0 75.5 42.5t26.5 123.5q0 146 -77 146z" />
    <glyph glyph-name="c" unicode="c" horiz-adv-x="473" 
d="M324 290q0 60 -14.5 91t-58.5 31q-80 0 -80 -166q0 -82 23 -119t74 -37q26 0 56 11t62 35q16 -10 31.5 -32.5t19.5 -42.5q-34 -34 -83.5 -54.5t-103.5 -20.5q-105 0 -159 71.5t-54 196.5q0 64 17.5 112t47.5 80t68.5 48t80.5 16q44 0 79.5 -12.5t60 -34t38 -50.5
t13.5 -61t-16.5 -49.5t-49.5 -17.5q-30 0 -52 5z" />
    <glyph glyph-name="d" unicode="d" horiz-adv-x="534" 
d="M234 506q48 0 102 -27v250l7 7h50q39 0 55 -18t16 -63v-512q0 -61 28 -83q-4 -18 -16.5 -38t-26.5 -30q-65 6 -94 59q-59 -65 -143 -65q-43 0 -75.5 18.5t-54.5 52t-33 81.5t-11 108q0 61 15.5 109t42 81.5t62 51.5t76.5 18zM246 93q52 0 90 50v234q-22 14 -42 21.5
t-37 7.5q-39 0 -62.5 -41t-23.5 -121q0 -78 21 -114.5t54 -36.5z" />
    <glyph glyph-name="e" unicode="e" horiz-adv-x="498" 
d="M446 206h-276q3 -55 25.5 -86.5t78.5 -31.5q58 0 133 34q29 -30 37 -79q-80 -57 -192 -57q-106 0 -160.5 65.5t-54.5 194.5q0 60 14 108.5t41 83t66 53.5t89 19q51 0 90 -15.5t66 -44t40.5 -67.5t13.5 -85q0 -25 -3 -47.5t-8 -44.5zM253 416q-78 0 -84 -118h166v12
q0 48 -20 77t-62 29z" />
    <glyph glyph-name="f" unicode="f" horiz-adv-x="346" 
d="M94 0v404l-86 -1q-3 12 -4 24t-1 23t1 22.5t4 24.5l80 -1q-6 52 -6 78q0 36 12 66.5t34 52.5t51.5 34.5t64.5 12.5q71 0 144 -26q0 -55 -29 -87q-56 14 -82 14q-70 0 -70 -76q0 -34 6 -70l136 2q2 -13 3.5 -24.5t1.5 -22.5t-1.5 -23t-3.5 -24l-127 2v-405
q-17 -3 -32.5 -4t-31.5 -1t-31.5 1t-32.5 4z" />
    <glyph glyph-name="g" unicode="g" horiz-adv-x="532" 
d="M367 461q28 37 83 43q14 -10 27 -30t16 -37q-28 -24 -28 -83v-279q0 -87 -14 -144t-42 -91t-70.5 -47.5t-99.5 -13.5q-100 0 -181 34q0 24 9.5 52t23.5 44q63 -31 135 -31q112 0 112 119v39q-57 -45 -123 -45q-88 0 -132.5 69t-44.5 190q0 61 15.5 109t42 81.5t61.5 51.5
t75 18q82 0 135 -49zM338 143v227q-43 40 -83 40t-62 -42t-22 -120t20.5 -114.5t53.5 -36.5q53 0 93 46z" />
    <glyph glyph-name="h" unicode="h" horiz-adv-x="543" 
d="M478 334v-218q0 -64 21 -95q-32 -28 -77 -28q-43 0 -59 19.5t-16 61.5v233q0 45 -11 63t-41 18q-53 0 -99 -48v-340q-15 -3 -30.5 -4t-32.5 -1q-16 0 -32 1t-32 4v729l6 7h51q39 0 54.5 -18t15.5 -63v-211q70 61 141 61q72 0 106.5 -46.5t34.5 -124.5z" />
    <glyph glyph-name="i" unicode="i" horiz-adv-x="285" 
d="M218 395v-395q-15 -3 -31.5 -4t-33.5 -1t-33.5 1t-32.5 4v348q0 55 -45 55h-13q-6 22 -6 46q0 22 6 46q23 2 42.5 3.5t33.5 1.5h17q45 0 70.5 -28t25.5 -77zM67 689q23 13 66 13q25 0 40.5 -4t22.5 -9.5t9 -20.5t2 -31q-3 -51 -12.5 -56t-62.5 -10q-56 2 -65.5 15
t-9.5 51q0 29 10 52z" />
    <glyph glyph-name="j" unicode="j" horiz-adv-x="292" 
d="M224 395v-371q0 -55 -6.5 -95.5t-25 -69.5t-51.5 -48t-86 -31q-33 28 -36 80q22 10 36.5 20.5t23.5 25t13 33t4 44.5v365q0 55 -46 55h-22q-6 22 -6 46q0 22 6 46q26 2 47 3.5t38 1.5h18q43 0 68 -28t25 -77zM72 689q23 13 66 13q25 0 40 -4t22 -10t9.5 -20.5t2.5 -30.5
q-5 -53 -17 -58t-58 -8q-54 2 -64.5 14.5t-10.5 51.5q0 29 10 52z" />
    <glyph glyph-name="k" unicode="k" horiz-adv-x="513" 
d="M424 193l29 -78q22 -63 48 -82q-35 -40 -88 -40q-30 0 -45 14.5t-28 49.5l-34 92q-13 34 -28.5 46t-36.5 12t-45 -2v-205q-30 -5 -63.5 -5t-63.5 5v729l6 7h51q39 0 54.5 -18.5t15.5 -62.5v-341l25 1q17 0 26 16l69 119q27 50 78 50q24 0 72 -2l6 -8l-93 -160
q-16 -31 -42 -49q61 -20 87 -88z" />
    <glyph glyph-name="l" unicode="l" horiz-adv-x="304" 
d="M237 96h31q11 -28 11 -54t-3 -38q-61 -9 -97 -9q-58 0 -85 29.5t-27 92.5v612l7 7h50q39 0 55 -18.5t16 -62.5v-513q0 -46 42 -46z" />
    <glyph glyph-name="m" unicode="m" horiz-adv-x="803" 
d="M338 307q0 81 -52 81q-43 -2 -87 -47v-341q-30 -5 -65 -5t-65 5v495l6 7h49q59 0 72 -62q70 65 139 65q82 0 116 -72q77 72 156 72q64 0 97.5 -43.5t33.5 -113.5v-232q0 -64 21 -95q-35 -28 -77.5 -28t-58.5 20t-16 61v234q0 80 -53 80q-40 0 -86 -48v-340q-30 -5 -65 -5
t-65 5v307z" />
    <glyph glyph-name="n" unicode="n" horiz-adv-x="546" 
d="M481 334v-218q0 -64 21 -95q-32 -28 -77 -28q-43 0 -59 19.5t-16 61.5v233q0 45 -11 63t-41 18q-53 0 -99 -48v-340q-15 -3 -31.5 -4t-33.5 -1t-33.5 1t-31.5 4v495l6 7h50q56 0 70 -60q73 63 145 63t106.5 -46.5t34.5 -124.5z" />
    <glyph glyph-name="o" unicode="o" horiz-adv-x="521" 
d="M413 454q71 -71 71 -206q0 -60 -15 -108.5t-43.5 -82.5t-70.5 -52.5t-95 -18.5t-94.5 18.5t-70 52.5t-43.5 82.5t-15 108.5q0 121 58 191.5t165 70.5q94 0 153 -56zM260 412q-89 0 -89 -164q0 -163 89 -163q90 0 90 163q0 164 -90 164z" />
    <glyph glyph-name="p" unicode="p" horiz-adv-x="534" 
d="M300 -9q-52 0 -103 27v-153q0 -45 -16 -63t-55 -18h-51l-6 7v704l6 7h37q53 0 74 -49q57 57 138 57q82 0 127 -69.5t45 -190.5q0 -60 -15.5 -108t-42 -81.5t-62 -51.5t-76.5 -18zM288 404q-54 0 -91 -52v-232q44 -29 80 -29q42 0 64 42.5t22 119.5q0 78 -21 114.5
t-54 36.5z" />
    <glyph glyph-name="q" unicode="q" horiz-adv-x="534" 
d="M337 -135v170q-56 -44 -122 -44q-88 0 -132.5 69t-44.5 190q0 61 15.5 109t42 81.5t61.5 51.5t75 18q79 0 135 -48q29 36 82 42q13 -10 26 -30t18 -37q-28 -22 -28 -83v-563l-7 -7h-50q-39 0 -55 18t-16 63zM245 97q51 0 92 45v229q-42 39 -81 39q-40 0 -62.5 -41.5
t-22.5 -119.5t21 -115t53 -37z" />
    <glyph glyph-name="r" unicode="r" horiz-adv-x="383" 
d="M40 436q4 18 16.5 38t25.5 30q81 -10 111 -90q38 89 127 89q33 0 60 -7q0 -70 -32 -122q-15 5 -46 7q-58 0 -94 -62v-319q-30 -5 -64.5 -5t-66.5 5v333q0 71 -37 103z" />
    <glyph glyph-name="s" unicode="s" horiz-adv-x="440" 
d="M25 35q1 22 12.5 48.5t26.5 41.5q79 -43 139 -43q33 0 53.5 13t20.5 35q0 35 -54 56l-56 21q-126 46 -126 147q0 36 13.5 64.5t38 49t58.5 31.5t76 11q19 0 42.5 -3t47.5 -8.5t46 -12.5t38 -15q0 -25 -10 -52t-27 -40q-79 35 -137 35q-26 0 -41 -12.5t-15 -32.5
q0 -31 50 -49l61 -22q66 -23 98 -63t32 -93q0 -71 -53 -113.5t-152 -42.5q-97 0 -182 49z" />
    <glyph glyph-name="t" unicode="t" horiz-adv-x="363" 
d="M337 497q6 -24 6 -47t-6 -47l-121 2v-263q0 -46 43 -46h62q10 -30 10 -57t-3 -35q-61 -9 -120 -9q-120 0 -120 122v287l-76 -1q-5 20 -5 47t5 47l76 -1v72q0 44 16 62t55 18h50l7 -6v-147z" />
    <glyph glyph-name="u" unicode="u" horiz-adv-x="548" 
d="M65 162v219q0 62 -21 95q33 28 76.5 28t59.5 -20.5t16 -61.5v-233q0 -43 11 -61.5t41 -18.5q53 0 99 46v341q22 5 64.5 5t66.5 -5v-355q0 -59 28 -83q-5 -18 -17.5 -37t-26.5 -29q-73 7 -101 71q-77 -72 -159 -72q-67 0 -102 47t-35 124z" />
    <glyph glyph-name="v" unicode="v" horiz-adv-x="468" 
d="M243 102l102 394q20 5 53 5t62 -10l4 -6q-98 -341 -146 -485q-44 -6 -90.5 -6t-66.5 13.5t-32 53.5l-129 425q40 19 74 19q59 0 73 -59l56 -203q11 -36 30 -133q2 -8 10 -8z" />
    <glyph glyph-name="w" unicode="w" horiz-adv-x="740" 
d="M113 60l-100 429q39 16 70.5 16t46 -13.5t19.5 -41.5l38 -184q20 -98 29 -161q2 -8 8 -8l69 396q31 6 78 6t76 -6l69 -388q1 -8 8 -8q18 104 31 169l50 230q21 6 59.5 6t60.5 -11l4 -8l-120 -483q-33 -5 -85.5 -5t-71.5 12t-25 51l-22 123q-20 115 -32 198h-6
q-7 -52 -33 -197l-34 -182q-35 -5 -87 -5t-71.5 13t-28.5 52z" />
    <glyph glyph-name="x" unicode="x" horiz-adv-x="471" 
d="M327 496q21 6 52 6t65 -9l3 -10l-141 -219l160 -243q-44 -29 -88 -29t-70 39l-82 125l-93 -156q-19 -6 -57 -6t-64 11l-4 8l155 241l-143 222q42 30 89 30q24 0 38 -9.5t28 -31.5l69 -105z" />
    <glyph glyph-name="y" unicode="y" horiz-adv-x="483" 
d="M475 484l-128 -470q-33 -119 -83.5 -176t-151.5 -57q-56 0 -109 19q-2 22 6 50t21 43q44 -14 83 -14q77 0 108 102l4 13q-38 1 -60 14t-31 44l-124 434q41 19 73 19t47.5 -12.5t24.5 -44.5l57 -211q6 -23 29 -139q1 -7 9 -7l98 405q23 6 58 6t64 -10z" />
    <glyph glyph-name="z" unicode="z" horiz-adv-x="448" 
d="M49 116l140 189q15 20 80 96l-3 4q-58 -7 -129 -7h-90q-5 22 -5 45.5t8 52.5h342q17 -51 17 -73.5t-14 -40.5l-141 -191q-44 -57 -77 -93l3 -5q39 5 86 5h41q67 0 100 16q13 -32 13 -55q0 -59 -75 -59h-299q-16 44 -16 67t19 49z" />
    <glyph glyph-name="braceleft" unicode="{" horiz-adv-x="373" 
d="M44 369q36 8 59.5 40t23.5 73v165q0 72 41.5 116t110.5 55l59 9q13 -14 21 -41.5t3 -44.5l-55 -18q-48 -15 -48 -77v-162q0 -50 -23.5 -93t-62.5 -60v-8q39 -18 62.5 -61t23.5 -93v-162q0 -62 48 -77l55 -18q5 -17 -3 -44.5t-21 -42.5l-59 10q-69 11 -110.5 54.5
t-41.5 116.5v165q0 41 -23.5 73t-59.5 40q-7 16 -7 42.5t7 42.5z" />
    <glyph glyph-name="bar" unicode="|" horiz-adv-x="263" 
d="M70 -141v915q24 5 61 5t61 -5v-915q-23 -6 -61 -6t-61 6z" />
    <glyph glyph-name="braceright" unicode="}" horiz-adv-x="373" 
d="M330 369q6 -16 6 -42.5t-6 -42.5q-36 -8 -59.5 -40t-23.5 -73v-165q0 -73 -42 -116.5t-111 -54.5l-59 -10q-13 15 -20.5 42.5t-3.5 44.5l55 18q49 16 49 77v162q0 50 23.5 93t62.5 61v8q-39 17 -62.5 60t-23.5 93v162q0 61 -49 77l-55 18q-4 17 3.5 44.5t20.5 41.5l59 -9
q69 -11 111 -55t42 -116v-165q0 -42 23.5 -73.5t59.5 -39.5z" />
    <glyph glyph-name="asciitilde" unicode="~" horiz-adv-x="610" 
d="M289 371l81 -37q27 -12 48 -12q16 -1 29.5 7.5t27.5 22.5l22 24q22 -2 45.5 -15.5t32.5 -34.5l-17 -29q-56 -95 -150 -95q-20 1 -42 5t-45 15l-81 37q-25 11 -48 11q-29 1 -57 -29l-22 -24q-22 2 -45.5 15.5t-32.5 34.5l17 29q56 95 150 95q39 0 87 -20z" />
    <glyph glyph-name="exclamdown" unicode="&#xa1;" horiz-adv-x="298" 
d="M202 294l17 -453q-50 -36 -139 -36l-8 9l30 480q10 3 23.5 4.5t27.5 1.5q29 0 49 -6zM218 386q-24 -15 -66 -15q-17 0 -31 2t-25 7.5t-15 19t-4 38.5t4 39.5t15 19.5t24.5 7t31.5 2t32 -2.5t26 -8t14.5 -19.5t3.5 -38q0 -36 -10 -52z" />
    <glyph glyph-name="cent" unicode="&#xa2;" horiz-adv-x="465" 
d="M195 -32v99q-43 9 -74 31.5t-50.5 57t-28.5 79t-9 96.5q0 106 46 170t119 81v99q17 5 48 5t49 -5v-97q32 -6 58 -20.5t44 -34.5t28 -44t10 -50q0 -73 -70 -73q-21 1 -29 2t-19 7q0 118 -74 118q-75 0 -75 -161q0 -160 99 -160q52 0 113 46q16 -11 31.5 -32t19.5 -40
q-49 -58 -139 -76v-98q-14 -3 -49 -3q-36 0 -48 3z" />
    <glyph glyph-name="sterling" unicode="&#xa3;" horiz-adv-x="534" 
d="M231 355l176 1q7 -19 7 -47.5t-7 -47.5q-108 0 -162 1q-4 -85 -58 -157l3 -3q90 6 160 6h152q0 -28 -2 -44q-12 -65 -88 -65h-346q-15 68 -15 89.5t16 42.5l15 22q41 60 45 108h-75q-7 19 -7 47t7 48q9 0 27.5 -0.5t28.5 -0.5q-22 51 -26 61q-11 33 -11 64q0 71 55 126.5
t155 55.5q63 0 117.5 -23t88.5 -55q-4 -25 -23.5 -49t-44.5 -32q-65 51 -129 51q-40 0 -65 -22.5t-25 -61.5q0 -34 31 -115z" />
    <glyph glyph-name="currency" unicode="&#xa4;" horiz-adv-x="583" 
d="M97 215q-32 50 -32 118q0 69 32 119l-70 77q21 39 68 68l79 -72q26 14 55.5 20.5t60.5 6.5q63 0 116 -27l82 74q42 -26 68 -68l-71 -80q31 -50 31 -118q0 -66 -33 -118l71 -78q-24 -41 -68 -68l-81 73q-50 -26 -115 -26q-64 0 -114 26l-81 -72q-42 24 -68 68zM291 455
q-48 0 -72 -33.5t-24 -87.5q0 -52 24 -86.5t72 -34.5t72 33.5t24 87.5t-24 87.5t-72 33.5z" />
    <glyph glyph-name="yen" unicode="&#xa5;" horiz-adv-x="533" 
d="M477 160h-148v-160q-27 -5 -65 -5t-64 5v160h-147q-6 19 -6 40.5t6 43.5h141l-32 72h-109q-6 19 -6 40.5t6 43.5h72l-105 235q46 23 77 23t44.5 -10.5t23.5 -35.5l59 -143q16 -40 43 -126h5q23 77 47 128l76 178q22 6 54.5 6t61.5 -8l5 -7l-110 -240h71q6 -27 6 -43.5
t-6 -40.5h-110l-33 -72h143q6 -27 6 -43.5t-6 -40.5z" />
    <glyph glyph-name="brokenbar" unicode="&#xa6;" horiz-adv-x="257" 
d="M68 -141v387q24 5 60 5t61 -5v-387q-24 -6 -61 -6t-60 6zM68 387v387q24 5 60 5t61 -5v-387q-24 -6 -61 -6t-60 6z" />
    <glyph glyph-name="section" unicode="&#xa7;" horiz-adv-x="493" 
d="M465 308q0 -87 -102 -148q68 -47 68 -116q0 -35 -14 -64t-40.5 -49.5t-64 -32t-83.5 -11.5q-95 0 -165 42q0 29 11.5 54t26.5 36q78 -35 134 -35q29 0 47 12.5t18 33.5q0 17 -13 29.5t-38 23.5l-58 24q-78 32 -120.5 70.5t-42.5 99.5q0 86 101 148q-66 46 -66 115
q0 34 14 63t39.5 50t60 32.5t76.5 11.5q83 0 160 -36q0 -30 -11.5 -54.5t-25.5 -36.5q-71 30 -109 30q-74 0 -74 -46q0 -33 51 -52l57 -23q78 -32 120.5 -70.5t42.5 -100.5zM240 374l-23 9q-62 -32 -62 -83q0 -30 24.5 -49.5t75.5 -39.5l23 -9q61 31 61 83q0 29 -25.5 49.5
t-73.5 39.5z" />
    <glyph glyph-name="dieresis" unicode="&#xa8;" 
d="M239 663q23 14 57 14q32 0 57 -14q8 -22 8 -46q0 -19 -3.5 -32t-12.5 -17.5t-21.5 -6.5t-27.5 -2q-16 0 -31 3t-26 11q-5 10 -6.5 21.5t-1.5 23.5q0 26 8 45zM45 663q23 14 57 14q32 0 57 -14q8 -22 8 -46q0 -19 -3.5 -32t-12.5 -17.5t-21.5 -6.5t-27.5 -2q-16 0 -31 3
t-26 11q-5 10 -6.5 21.5t-1.5 23.5q0 26 8 45z" />
    <glyph glyph-name="copyright" unicode="&#xa9;" horiz-adv-x="795" 
d="M140 83q-104 106 -104 258q0 76 28 142t76.5 115t114.5 77.5t142 28.5t142.5 -28t115.5 -77t77 -115.5t28 -142.5t-28 -142t-77 -115t-115.5 -77t-142.5 -28q-153 0 -257 104zM211 535q-73 -79 -73 -194q0 -57 19.5 -107t54 -86.5t82 -58t103.5 -21.5t104 21.5t83 58
t54.5 86.5t19.5 107t-19.5 106.5t-54.5 87t-83 59t-104 21.5q-112 0 -186 -80zM454 372v10q0 33 -14 56t-44 23q-66 0 -66 -117t85 -117q38 0 89 36q13 -8 24.5 -25.5t14.5 -33.5q-24 -25 -65 -41.5t-80 -16.5q-45 0 -77.5 14.5t-54 41.5t-31.5 64t-10 82q0 46 14.5 81.5
t38.5 59.5t55 36.5t64 12.5q34 0 62.5 -9.5t48 -25.5t30.5 -37.5t11 -45.5q0 -54 -56 -54q-24 0 -39 6z" />
    <glyph glyph-name="ordfeminine" unicode="&#xaa;" horiz-adv-x="441" 
d="M196 535l65 -3v26q0 27 -15.5 40.5t-38.5 13.5q-49 0 -121 -25q-27 30 -28 73q87 37 176 37q61 0 100.5 -33.5t39.5 -102.5v-156q0 -45 26 -62q-2 -16 -14.5 -33t-27.5 -24q-51 3 -78 44q-56 -49 -116 -49q-29 0 -52 9.5t-39.5 26t-25 38.5t-8.5 46q0 67 43.5 100.5
t113.5 33.5zM192 363q35 0 69 31v67q-16 1 -28.5 1.5t-22.5 0.5q-29 0 -46.5 -13.5t-17.5 -37.5q0 -19 11.5 -34t34.5 -15z" />
    <glyph glyph-name="guillemotleft" unicode="&#xab;" horiz-adv-x="589" 
d="M551 413l-131 -156l135 -159q-7 -21 -29 -41t-44 -26l-200 185q-7 16 -7 39t7 39l198 187q21 -6 42.5 -26.5t28.5 -41.5zM303 413l-131 -156l135 -159q-7 -21 -29 -41t-44 -26l-200 185q-7 16 -7 39t7 39l198 187q21 -6 42.5 -26.5t28.5 -41.5z" />
    <glyph glyph-name="logicalnot" unicode="&#xac;" horiz-adv-x="530" 
d="M362 249l-58 -1h-255q-5 21 -5 53t5 55h420l7 -7v-229q-21 -5 -54.5 -5t-60.5 5v74z" />
    <glyph glyph-name="uni00AD" unicode="&#xad;" horiz-adv-x="364" 
d="M314 214h-265q-6 22 -6 54t6 54h265q6 -22 6 -54t-6 -54z" />
    <glyph glyph-name="registered" unicode="&#xae;" horiz-adv-x="597" 
d="M108 284q-77 79 -77 191q0 56 21 105t57 85.5t84.5 57.5t104.5 21t105 -21t85.5 -57.5t57.5 -85.5t21 -105t-21 -105t-57.5 -85t-85.5 -57t-105 -21q-111 0 -190 77zM164 614q-54 -57 -54 -139q0 -41 14.5 -76.5t39.5 -61.5t59.5 -41.5t74.5 -15.5t75 15.5t60 42t39.5 62
t14.5 75.5t-14.5 75.5t-40 62.5t-60 42.5t-74.5 15.5q-80 0 -134 -57zM200 604l105 3q51 0 75 -20.5t24 -51.5q0 -30 -14.5 -47t-35.5 -22q18 -9 33 -38l12 -24q10 -21 23 -29q-19 -25 -45 -25q-13 0 -25 7t-20 23l-23 45q-9 18 -28 18h-14v-88q-7 -3 -15.5 -4t-18.5 -1
t-19.5 1t-16.5 4v247zM267 554v-58q15 2 26.5 2t20 2t13 7.5t4.5 17.5q0 29 -32 29h-32z" />
    <glyph glyph-name="macron" unicode="&#xaf;" 
d="M347 573h-295q-6 20 -6 48t6 50h295q5 -23 5 -50t-5 -48z" />
    <glyph glyph-name="degree" unicode="&#xb0;" horiz-adv-x="339" 
d="M59 408q-43 43 -43 111q0 33 11.5 61.5t32 49t48.5 32t61 11.5t61 -11.5t49 -32.5t32.5 -49t11.5 -61t-11.5 -61.5t-32 -49t-49 -32t-61.5 -11.5q-67 0 -110 43zM126 570q-8 -10 -12 -23.5t-4 -27.5q0 -31 15.5 -50.5t43.5 -19.5q27 0 43 19.5t16 50.5t-16 50.5t-43 19.5
q-12 0 -23.5 -5t-19.5 -14z" />
    <glyph glyph-name="plusminus" unicode="&#xb1;" horiz-adv-x="530" 
d="M210 404l-1 61v80q24 5 56.5 5t55.5 -5v-80l-1 -61l57 1h88q5 -24 5 -49.5t-5 -49.5h-88l-57 1l1 -60v-81q-23 -5 -55.5 -5t-56.5 5v81l1 60l-57 -1h-88q-5 24 -5 49.5t5 49.5h88zM465 0h-400q-5 24 -5 51t5 51h400q5 -24 5 -51t-5 -51z" />
    <glyph glyph-name="twosuperior" unicode="&#xb2;" horiz-adv-x="420" 
d="M362 425q0 -47 -12 -72.5t-54 -25.5h-214q-36 46 -36 67q-1 50 71 110l82 68q35 29 35 61q0 19 -12.5 31.5t-31.5 12.5q-40 0 -56 -51q-11 0 -23 3.5t-24 8.5t-21.5 11.5t-13.5 13.5q12 48 52 80t101 32q30 0 56.5 -10.5t46 -28t31 -41t11.5 -49.5t-5 -46.5t-15.5 -37.5
t-26 -32.5t-35.5 -31.5l-56 -43q-49 -37 -51 -40q49 10 98 10h103z" />
    <glyph glyph-name="threesuperior" unicode="&#xb3;" horiz-adv-x="420" 
d="M318 659l-52 -46q-6 -6 -27 -19q51 -3 84.5 -38.5t33.5 -95.5q0 -30 -13.5 -55t-36 -43t-52.5 -28t-63 -10q-90 0 -148 46q7 41 44 73q26 -17 48 -24.5t40 -7.5q33 0 50 18t17 41q0 31 -18.5 45t-41.5 14q-19 0 -33 -7q-13 5 -26.5 23t-17.5 35l72 67q9 8 19.5 16
t23.5 16l-3 4q-27 -6 -79 -6h-73q-6 18 -6 43q0 28 9 48h250q11 -20 16.5 -35.5t5.5 -29.5q0 -26 -23 -44z" />
    <glyph glyph-name="acute" unicode="&#xb4;" 
d="M113 591l150 164q26 -8 50.5 -31t33.5 -49l-179 -136q-40 13 -55 52z" />
    <glyph glyph-name="paragraph" unicode="&#xb6;" horiz-adv-x="712" 
d="M281 62v181h-15q-51 0 -94 14.5t-73.5 43t-47.5 71t-17 97.5q0 110 64.5 164.5t173.5 54.5q17 0 50 -1t84 -3l7 -7v-590q3 -129 -48 -186t-164 -59q-10 0 -33 1.5t-46.5 5t-41.5 8.5t-18 13q0 20 8 48t21 45q30 -10 56 -15.5t48 -5.5q42 0 64 26.5t22 93.5zM656 570h-47
v-701q-26 -6 -68 -6q-41 0 -65 6v807l6 7h207q7 -18 7 -57q0 -38 -7 -56h-33z" />
    <glyph glyph-name="periodcentered" unicode="&#xb7;" horiz-adv-x="318" 
d="M92 230q-9 19 -9 55t9 56q29 16 66 16t67 -16q9 -24 9 -56q0 -34 -9 -55q-25 -16 -67 -16q-41 0 -66 16z" />
    <glyph glyph-name="cedilla" unicode="&#xb8;" 
d="M140 -76q5 20 11.5 38.5t14.5 37.5h73q-5 -10 -9.5 -18t-6.5 -16q45 -3 71 -27t26 -66q0 -21 -10 -39t-27.5 -32t-40.5 -22t-49 -8q-54 0 -86 22q1 36 24 60q19 -13 48 -13q40 0 40 33q0 18 -12 25.5t-26 7.5q-12 0 -21 -3q-15 8 -20 20z" />
    <glyph glyph-name="onesuperior" unicode="&#xb9;" horiz-adv-x="420" 
d="M46 624q54 33 84.5 65t51.5 78q24 5 50.5 5t52.5 -5v-343h82q5 -19 5 -47.5t-5 -47.5h-290q-4 21 -4 48t4 47h101v120q0 17 4 75q-26 -34 -87 -62q-39 19 -49 67z" />
    <glyph glyph-name="ordmasculine" unicode="&#xba;" horiz-adv-x="435" 
d="M338 653q59 -59 59 -165q0 -45 -11 -82.5t-33.5 -65.5t-56.5 -43.5t-79 -15.5t-79 15.5t-56 43.5t-33 65.5t-11 82.5q0 46 12 84.5t34.5 66t56 43t76.5 15.5q74 0 121 -44zM217 613q-69 0 -69 -124t69 -124q70 0 70 124t-70 124z" />
    <glyph glyph-name="guillemotright" unicode="&#xbb;" horiz-adv-x="589" 
d="M38 99l130 156l-135 159q7 21 29 41t44 26l201 -186q6 -15 6 -38t-6 -39l-198 -187q-22 6 -43 26.5t-28 41.5zM286 99l130 156l-135 159q7 21 29 41t44 26l201 -186q6 -15 6 -38t-6 -39l-198 -187q-22 6 -43 26.5t-28 41.5z" />
    <glyph glyph-name="onequarter" unicode="&#xbc;" horiz-adv-x="1002" 
d="M31 541q54 33 84.5 65t51.5 78q24 5 50.5 5t52.5 -5v-343h82q5 -19 5 -47.5t-5 -47.5h-290q-4 21 -4 48t4 47h101v120q0 17 4 75q-26 -34 -87 -62q-39 19 -49 67zM283 0l378 683q26 6 67.5 6t58.5 -6l-377 -683q-27 -6 -68 -6t-59 6zM937 79l-31 1v-74q-20 -5 -51 -5
t-54 5v29l1 45l-49 -2h-111q-24 39 -24 60t15 54l115 255q25 3 56.5 -3.5t47.5 -19.5l-63 -138q-35 -82 -64 -118l2 -2q40 4 74 4v42q0 37 20 58t55 21h27l4 -4v-54l-1 -63h56q4 -16 4 -40t-8 -51h-21z" />
    <glyph glyph-name="onehalf" unicode="&#xbd;" horiz-adv-x="1002" 
d="M31 541q54 33 84.5 65t51.5 78q24 5 50.5 5t52.5 -5v-343h82q5 -19 5 -47.5t-5 -47.5h-290q-4 21 -4 48t4 47h101v120q0 17 4 75q-26 -34 -87 -62q-39 19 -49 67zM270 0l378 683q26 6 67.5 6t58.5 -6l-377 -683q-27 -6 -68 -6t-59 6zM959 102q0 -47 -12 -72.5t-54 -25.5
h-214q-36 46 -36 67q-1 50 71 110l82 68q35 29 35 61q0 19 -12.5 31.5t-31.5 12.5q-40 0 -56 -51q-11 0 -23 3.5t-24 8.5t-21.5 11.5t-13.5 13.5q12 48 52 80t101 32q30 0 56.5 -10.5t46 -28t31 -41t11.5 -49.5t-5 -46.5t-15.5 -37.5t-26 -32.5t-35.5 -31.5l-56 -43
q-49 -37 -51 -40q49 10 98 10h103z" />
    <glyph glyph-name="threequarters" unicode="&#xbe;" horiz-adv-x="1002" 
d="M320 576l-52 -46q-6 -6 -27 -19q51 -3 84.5 -38.5t33.5 -95.5q0 -30 -13.5 -55t-36 -43t-52.5 -28t-63 -10q-90 0 -148 46q7 41 44 73q26 -17 48 -24.5t40 -7.5q33 0 50 18t17 41q0 31 -18.5 45t-41.5 14q-19 0 -33 -7q-13 5 -26.5 23t-17.5 35l72 67q9 8 19.5 16
t23.5 16l-3 4q-27 -6 -79 -6h-73q-6 18 -6 43q0 28 9 48h250q11 -20 16.5 -35.5t5.5 -29.5q0 -26 -23 -44zM260 0l378 683q26 6 67.5 6t58.5 -6l-377 -683q-27 -6 -68 -6t-59 6zM924 79l-31 1v-74q-20 -5 -51 -5t-54 5v29l1 45l-49 -2h-111q-24 39 -24 60t15 54l115 255
q25 3 56.5 -3.5t47.5 -19.5l-63 -138q-35 -82 -64 -118l2 -2q40 4 74 4v42q0 37 20 58t55 21h27l4 -4v-54l-1 -63h56q4 -16 4 -40t-8 -51h-21z" />
    <glyph glyph-name="questiondown" unicode="&#xbf;" horiz-adv-x="409" 
d="M408 -149q-96 -54 -194 -54q-97 0 -149 47.5t-52 128.5q0 124 130 196l62 34l9 88q11 3 23 5t26 2q13 0 26 -2t24 -5l7 -149l-11 -13l-52 -25q-52 -25 -79.5 -53.5t-27.5 -62.5q0 -32 22.5 -55.5t66.5 -23.5q24 0 54.5 8.5t66.5 28.5q9 -7 17.5 -18t15 -24t11 -27
t4.5 -26zM328 386q-26 -15 -68 -15q-18 0 -32 2.5t-24 8.5t-14 19.5t-4 36.5q0 24 3.5 37.5t14 19.5t24.5 8.5t33 2.5q18 0 32 -2t25 -7t15 -19.5t4 -39.5q0 -37 -9 -52z" />
    <glyph glyph-name="Agrave" unicode="&#xc0;" horiz-adv-x="625" 
d="M426 155l-49 -1h-140l-49 1l-47 -156q-21 -5 -59.5 -5t-62.5 9l-5 7l223 673q37 5 80 5t75 -6l219 -673q-29 -17 -69.5 -17t-58 15t-29.5 57zM221 261l45 1h86l42 -1l-30 102q-34 114 -54 194h-6q-9 -43 -44 -169zM227 921l213 -129q-8 -46 -38 -64l-229 92q2 28 19 57.5
t35 43.5z" />
    <glyph glyph-name="Aacute" unicode="&#xc1;" horiz-adv-x="625" 
d="M426 155l-49 -1h-140l-49 1l-47 -156q-21 -5 -59.5 -5t-62.5 9l-5 7l223 673q37 5 80 5t75 -6l219 -673q-29 -17 -69.5 -17t-58 15t-29.5 57zM221 261l45 1h86l42 -1l-30 102q-34 114 -54 194h-6q-9 -43 -44 -169zM202 792l213 129q18 -14 35 -43.5t19 -57.5l-229 -92
q-14 8 -25 27t-13 37z" />
    <glyph glyph-name="Acircumflex" unicode="&#xc2;" horiz-adv-x="625" 
d="M426 155l-49 -1h-140l-49 1l-47 -156q-21 -5 -59.5 -5t-62.5 9l-5 7l223 673q37 5 80 5t75 -6l219 -673q-29 -17 -69.5 -17t-58 15t-29.5 57zM221 261l45 1h86l42 -1l-30 102q-34 114 -54 194h-6q-9 -43 -44 -169zM429 736l-115 74l-118 -84q-16 6 -33 22t-22 34l117 117
q57 12 111 0l113 -108q-6 -19 -21.5 -34t-31.5 -21z" />
    <glyph glyph-name="Atilde" unicode="&#xc3;" horiz-adv-x="625" 
d="M426 155l-49 -1h-140l-49 1l-47 -156q-21 -5 -59.5 -5t-62.5 9l-5 7l223 673q37 5 80 5t75 -6l219 -673q-29 -17 -69.5 -17t-58 15t-29.5 57zM221 261l45 1h86l42 -1l-30 102q-34 114 -54 194h-6q-9 -43 -44 -169zM321 758l-51 24q-7 4 -15 6.5t-16 2.5q-21 1 -39 -24
l-10 -14q-20 1 -39.5 12t-26.5 28l9 19q37 81 114 81q15 1 30 -4t32 -13l51 -24q8 -4 15.5 -6.5t15.5 -2.5q21 -1 39 24l10 13q20 0 39.5 -11t26.5 -28l-9 -19q-38 -81 -114 -81q-31 0 -62 17z" />
    <glyph glyph-name="Adieresis" unicode="&#xc4;" horiz-adv-x="625" 
d="M426 155l-49 -1h-140l-49 1l-47 -156q-21 -5 -59.5 -5t-62.5 9l-5 7l223 673q37 5 80 5t75 -6l219 -673q-29 -17 -69.5 -17t-58 15t-29.5 57zM221 261l45 1h86l42 -1l-30 102q-34 114 -54 194h-6q-9 -43 -44 -169zM481 842q11 -17 11 -47q0 -20 -4.5 -33t-14.5 -17
t-21.5 -6.5t-24.5 -2.5q-12 0 -24.5 2.5t-23.5 7t-16 17t-5 33.5q0 20 5 33.5t16 17.5t23.5 6.5t24.5 2.5q29 0 54 -14zM149 842q22 14 53 14q12 0 24 -2.5t23.5 -6t16 -16.5t4.5 -35t-4 -34.5t-16 -17t-24 -6.5t-24 -2q-28 1 -46 9.5t-18 49.5q0 30 11 47z" />
    <glyph glyph-name="Aring" unicode="&#xc5;" horiz-adv-x="625" 
d="M426 155l-70 -1h-119l-49 1l-47 -156q-23 -5 -60 -5q-38 0 -62 9l-5 7l223 673h3q-57 34 -57 101q0 25 10 47.5t27.5 38.5t41.5 25.5t53 9.5t53 -9.5t41.5 -25.5t27 -38.5t9.5 -47.5q0 -67 -58 -101h4l219 -674q-29 -17 -70 -17q-20 0 -34 3.5t-23.5 11.5t-16.5 22
t-13 35zM221 261l44 1h87l42 -1l-30 102q-17 57 -31 105.5t-23 88.5h-6q-5 -22 -16 -64t-28 -105zM315 837q-22 0 -36 -15t-14 -38q0 -24 15 -38t38 -14t34 16.5t11 36.5t-12 36t-36 16z" />
    <glyph glyph-name="AE" unicode="&#xc6;" horiz-adv-x="882" 
d="M525 172l-1 -63q42 2 70 2h247q0 -32 -3 -49q-11 -64 -86 -64h-281q-36 0 -56 21t-20 59v77q-15 -1 -44 -1h-89q-31 0 -47 1l-70 -155q-19 -5 -64 -5t-67 9l-4 6l311 661q27 12 81 12h416q5 -25 5 -53.5t-11 -59.5h-288l1 -69v-103q25 1 65 1h171q8 -23 8 -55t-8 -55
h-236v-117zM350 261l45 -1v297h-5q-40 -106 -69 -169l-58 -128l36 1h51z" />
    <glyph glyph-name="Ccedilla" unicode="&#xc7;" horiz-adv-x="606" 
d="M258 -76q4 17 9 33t11 31q-65 6 -109.5 37.5t-73 79.5t-41 108.5t-12.5 125.5q0 90 22 157.5t59.5 112t88 67t107.5 22.5q59 0 106.5 -16t80.5 -43.5t51 -64t18 -78.5q0 -75 -76 -75q-11 0 -24 1.5t-29 5.5v10q0 33 -7 60.5t-22 48t-38.5 32t-56.5 11.5q-73 0 -106 -65.5
t-33 -198.5q0 -106 40.5 -164.5t110.5 -58.5q37 0 80.5 17.5t93.5 55.5q21 -14 40 -39t24 -48q-38 -38 -97 -66t-124 -35q-7 -12 -10 -22q45 -3 71 -27t26 -66q0 -21 -10 -39t-27.5 -32t-40.5 -22t-49 -8q-54 0 -85 22q1 37 23 60q19 -13 48 -13q40 0 40 33q0 18 -11 25.5
t-27 7.5q-12 0 -21 -3q-15 8 -20 20z" />
    <glyph glyph-name="Egrave" unicode="&#xc8;" horiz-adv-x="570" 
d="M215 171l-1 -62l70 2h245q0 -32 -3 -49q-11 -64 -86 -64h-281q-36 0 -56.5 21.5t-20.5 58.5v598l7 7h417q5 -25 5 -53.5t-11 -59.5h-286l1 -69v-103l65 1h169q8 -23 8 -55t-8 -55h-234v-118zM210 921l213 -129q-8 -46 -38 -64l-229 92q2 28 19 57.5t35 43.5z" />
    <glyph glyph-name="Eacute" unicode="&#xc9;" horiz-adv-x="570" 
d="M215 171l-1 -62l70 2h245q0 -32 -3 -49q-11 -64 -86 -64h-281q-36 0 -56.5 21.5t-20.5 58.5v598l7 7h417q5 -25 5 -53.5t-11 -59.5h-286l1 -69v-103l65 1h169q8 -23 8 -55t-8 -55h-234v-118zM186 792l213 129q18 -14 35 -43.5t19 -57.5l-229 -92q-14 8 -25 27t-13 37z
" />
    <glyph glyph-name="Ecircumflex" unicode="&#xca;" horiz-adv-x="570" 
d="M215 171l-1 -62l70 2h245q0 -32 -3 -49q-11 -64 -86 -64h-281q-36 0 -56.5 21.5t-20.5 58.5v598l7 7h417q5 -25 5 -53.5t-11 -59.5h-286l1 -69v-103l65 1h169q8 -23 8 -55t-8 -55h-234v-118zM413 736l-115 74l-118 -84q-16 6 -33 22t-22 34l117 117q57 12 111 0l113 -108
q-6 -19 -21.5 -34t-31.5 -21z" />
    <glyph glyph-name="Edieresis" unicode="&#xcb;" horiz-adv-x="570" 
d="M215 171l-1 -62l70 2h245q0 -32 -3 -49q-11 -64 -86 -64h-281q-36 0 -56.5 21.5t-20.5 58.5v598l7 7h417q5 -25 5 -53.5t-11 -59.5h-286l1 -69v-103l65 1h169q8 -23 8 -55t-8 -55h-234v-118zM465 842q11 -17 11 -47q0 -20 -4.5 -33t-14.5 -17t-21.5 -6.5t-24.5 -2.5
q-12 0 -24.5 2.5t-23.5 7t-16 17t-5 33.5q0 20 5 33.5t16 17.5t23.5 6.5t24.5 2.5q29 0 54 -14zM133 842q22 14 53 14q12 0 24 -2.5t23.5 -6t16 -16.5t4.5 -35t-4 -34.5t-16 -17t-24 -6.5t-24 -2q-28 1 -46 9.5t-18 49.5q0 30 11 47z" />
    <glyph glyph-name="Igrave" unicode="&#xcc;" horiz-adv-x="306" 
d="M86 0v683q25 5 65.5 5t68.5 -5v-683q-28 -5 -68.5 -5t-65.5 5zM65 921l213 -129q-8 -46 -38 -64l-229 92q2 28 19 57.5t35 43.5z" />
    <glyph glyph-name="Iacute" unicode="&#xcd;" horiz-adv-x="306" 
d="M86 0v683q25 5 65.5 5t68.5 -5v-683q-28 -5 -68.5 -5t-65.5 5zM41 792l213 129q18 -14 35 -43.5t19 -57.5l-229 -92q-14 8 -25 27t-13 37z" />
    <glyph glyph-name="Icircumflex" unicode="&#xce;" horiz-adv-x="306" 
d="M86 0v683q25 5 65.5 5t68.5 -5v-683q-28 -5 -68.5 -5t-65.5 5zM269 736l-115 74l-118 -84q-16 6 -33 22t-22 34l117 117q57 12 111 0l113 -108q-6 -19 -21.5 -34t-31.5 -21z" />
    <glyph glyph-name="Idieresis" unicode="&#xcf;" horiz-adv-x="306" 
d="M86 0v683q25 5 65.5 5t68.5 -5v-683q-28 -5 -68.5 -5t-65.5 5zM320 842q11 -17 11 -47q0 -20 -4.5 -33t-14.5 -17t-21.5 -6.5t-24.5 -2.5q-12 0 -24.5 2.5t-23.5 7t-16 17t-5 33.5q0 20 5 33.5t16 17.5t23.5 6.5t24.5 2.5q29 0 54 -14zM-12 842q22 14 53 14q12 0 24 -2.5
t23.5 -6t16 -16.5t4.5 -35t-4 -34.5t-16 -17t-24 -6.5t-24 -2q-28 1 -46 9.5t-18 49.5q0 30 11 47z" />
    <glyph glyph-name="Eth" unicode="&#xd0;" horiz-adv-x="673" 
d="M521 45q-32 -26 -83 -38t-105 -12q-27 0 -83.5 1t-144.5 3l-7 6v287h-72q-3 10 -4 24t-1 29t1 29.5t4 26.5h72v277l7 6q58 2 117 3t120 1q84 0 139.5 -27t88.5 -74.5t46.5 -110.5t13.5 -135q0 -100 -22.5 -172.5t-86.5 -123.5zM370 292h-140v-192q20 1 45 1h54
q55 0 87.5 20.5t48.5 56t21 78.5t5 86q0 46 -6 89.5t-22.5 77.5t-45.5 53.5t-75 19.5h-64t-48 1v-182h140q2 -12 3.5 -26.5t1.5 -29.5q0 -31 -5 -53z" />
    <glyph glyph-name="Ntilde" unicode="&#xd1;" horiz-adv-x="688" 
d="M598 689l7 -7v-680q-31 -7 -78 -7t-82 5l-184 387q-40 88 -60 140l-4 -1q11 -141 11 -272v-254q-28 -5 -63.5 -5t-61.5 5v681q29 7 76 7t82 -5l182 -387l65 -148l3 1q-10 145 -10 274v183q0 45 17 64t57 19h43zM353 758l-51 24q-7 4 -15 6.5t-16 2.5q-21 1 -39 -24
l-10 -14q-20 1 -39.5 12t-26.5 28l9 19q37 81 114 81q15 1 30 -4t32 -13l51 -24q8 -4 15.5 -6.5t15.5 -2.5q21 -1 39 24l10 13q20 0 39.5 -11t26.5 -28l-9 -19q-38 -81 -114 -81q-31 0 -62 17z" />
    <glyph glyph-name="Ograve" unicode="&#xd2;" horiz-adv-x="662" 
d="M479 341q0 251 -148 251t-148 -251q0 -250 148 -250t148 250zM149 47q-107 92 -107 294q0 85 19.5 151t57 111.5t91 69.5t122.5 24q68 0 121.5 -24t90.5 -69.5t56.5 -112t19.5 -150.5t-19.5 -150t-56.5 -111.5t-90.5 -69.5t-121.5 -24q-109 0 -183 61zM242 921l213 -129
q-8 -46 -38 -64l-229 92q2 28 19 57.5t35 43.5z" />
    <glyph glyph-name="Oacute" unicode="&#xd3;" horiz-adv-x="662" 
d="M479 341q0 251 -148 251t-148 -251q0 -250 148 -250t148 250zM149 47q-107 92 -107 294q0 85 19.5 151t57 111.5t91 69.5t122.5 24q68 0 121.5 -24t90.5 -69.5t56.5 -112t19.5 -150.5t-19.5 -150t-56.5 -111.5t-90.5 -69.5t-121.5 -24q-109 0 -183 61zM218 792l213 129
q18 -14 35 -43.5t19 -57.5l-229 -92q-14 8 -25 27t-13 37z" />
    <glyph glyph-name="Ocircumflex" unicode="&#xd4;" horiz-adv-x="662" 
d="M479 341q0 251 -148 251t-148 -251q0 -250 148 -250t148 250zM149 47q-107 92 -107 294q0 85 19.5 151t57 111.5t91 69.5t122.5 24q68 0 121.5 -24t90.5 -69.5t56.5 -112t19.5 -150.5t-19.5 -150t-56.5 -111.5t-90.5 -69.5t-121.5 -24q-109 0 -183 61zM445 736l-115 74
l-118 -84q-16 6 -33 22t-22 34l117 117q57 12 111 0l113 -108q-6 -19 -21.5 -34t-31.5 -21z" />
    <glyph glyph-name="Otilde" unicode="&#xd5;" horiz-adv-x="662" 
d="M479 341q0 251 -148 251t-148 -251q0 -250 148 -250t148 250zM149 47q-107 92 -107 294q0 85 19.5 151t57 111.5t91 69.5t122.5 24q68 0 121.5 -24t90.5 -69.5t56.5 -112t19.5 -150.5t-19.5 -150t-56.5 -111.5t-90.5 -69.5t-121.5 -24q-109 0 -183 61zM331 758l-51 24
q-7 4 -15 6.5t-16 2.5q-21 1 -39 -24l-10 -14q-20 1 -39.5 12t-26.5 28l9 19q37 81 114 81q15 1 30 -4t32 -13l51 -24q8 -4 15.5 -6.5t15.5 -2.5q21 -1 39 24l10 13q20 0 39.5 -11t26.5 -28l-9 -19q-38 -81 -114 -81q-31 0 -62 17z" />
    <glyph glyph-name="Odieresis" unicode="&#xd6;" horiz-adv-x="662" 
d="M479 341q0 251 -148 251t-148 -251q0 -250 148 -250t148 250zM149 47q-107 92 -107 294q0 85 19.5 151t57 111.5t91 69.5t122.5 24q68 0 121.5 -24t90.5 -69.5t56.5 -112t19.5 -150.5t-19.5 -150t-56.5 -111.5t-90.5 -69.5t-121.5 -24q-109 0 -183 61zM497 842
q11 -17 11 -47q0 -20 -4.5 -33t-14.5 -17t-21.5 -6.5t-24.5 -2.5q-12 0 -24.5 2.5t-23.5 7t-16 17t-5 33.5q0 20 5 33.5t16 17.5t23.5 6.5t24.5 2.5q29 0 54 -14zM165 842q22 14 53 14q12 0 24 -2.5t23.5 -6t16 -16.5t4.5 -35t-4 -34.5t-16 -17t-24 -6.5t-24 -2
q-28 1 -46 9.5t-18 49.5q0 30 11 47z" />
    <glyph glyph-name="multiply" unicode="&#xd7;" horiz-adv-x="530" 
d="M265 220l-25.5 -25.5t-97.5 -98.5q-26 12 -46.5 33.5t-31.5 44.5l86 86l38 36q-7 7 -20.5 20t-17.5 17l-86 86q26 56 78 78l86 -86q24 -26 37 -38q29 30 36 37l86 87q53 -27 78 -78l-124 -123l38 -36l86 -86q-12 -26 -31.5 -46.5t-46.5 -31.5l-86 87q-8 7 -36 37z" />
    <glyph glyph-name="Oslash" unicode="&#xd8;" horiz-adv-x="665" 
d="M42 342q0 82 19 148t56 112t91 70.5t124 24.5t121 -22l42 73q54 -8 85 -46l-47 -84q90 -98 90 -276q0 -82 -19 -147.5t-56 -112t-91.5 -71.5t-124.5 -25q-67 0 -121 22l-41 -71q-23 3 -47 16t-37 30l46 81q-90 97 -90 278zM199 190l202 388q-32 18 -73 18q-44 0 -73 -22
t-46 -59.5t-24 -87.5t-7 -107q0 -70 21 -130zM465 492l-202 -388q29 -17 72 -17q47 0 77 23.5t46.5 62.5t22.5 88.5t6 101.5q0 70 -22 129z" />
    <glyph glyph-name="Ugrave" unicode="&#xd9;" horiz-adv-x="671" 
d="M597 683v-437q0 -125 -68.5 -192.5t-193.5 -67.5q-124 0 -192.5 67.5t-68.5 192.5v436l6 7h50q40 0 59 -20.5t19 -65.5v-358q0 -152 127 -152q128 0 128 152v438q28 5 67 5t67 -5zM245 921l213 -129q-8 -46 -38 -64l-229 92q2 28 19 57.5t35 43.5z" />
    <glyph glyph-name="Uacute" unicode="&#xda;" horiz-adv-x="671" 
d="M597 683v-437q0 -125 -68.5 -192.5t-193.5 -67.5q-124 0 -192.5 67.5t-68.5 192.5v436l6 7h50q40 0 59 -20.5t19 -65.5v-358q0 -152 127 -152q128 0 128 152v438q28 5 67 5t67 -5zM221 792l213 129q18 -14 35 -43.5t19 -57.5l-229 -92q-14 8 -25 27t-13 37z" />
    <glyph glyph-name="Ucircumflex" unicode="&#xdb;" horiz-adv-x="671" 
d="M597 683v-437q0 -125 -68.5 -192.5t-193.5 -67.5q-124 0 -192.5 67.5t-68.5 192.5v436l6 7h50q40 0 59 -20.5t19 -65.5v-358q0 -152 127 -152q128 0 128 152v438q28 5 67 5t67 -5zM448 736l-115 74l-118 -84q-16 6 -33 22t-22 34l117 117q57 12 111 0l113 -108
q-6 -19 -21.5 -34t-31.5 -21z" />
    <glyph glyph-name="Udieresis" unicode="&#xdc;" horiz-adv-x="671" 
d="M597 683v-437q0 -125 -68.5 -192.5t-193.5 -67.5q-124 0 -192.5 67.5t-68.5 192.5v436l6 7h50q40 0 59 -20.5t19 -65.5v-358q0 -152 127 -152q128 0 128 152v438q28 5 67 5t67 -5zM501 842q11 -17 11 -47q0 -20 -4.5 -33t-14.5 -17t-21.5 -6.5t-24.5 -2.5
q-12 0 -24.5 2.5t-23.5 7t-16 17t-5 33.5q0 20 5 33.5t16 17.5t23.5 6.5t24.5 2.5q29 0 54 -14zM169 842q22 14 53 14q12 0 24 -2.5t23.5 -6t16 -16.5t4.5 -35t-4 -34.5t-16 -17t-24 -6.5t-24 -2q-28 1 -46 9.5t-18 49.5q0 30 11 47z" />
    <glyph glyph-name="Yacute" unicode="&#xdd;" horiz-adv-x="523" 
d="M316 485l79 198q23 5 58 5t63 -9l5 -8l-192 -458v-213q-26 -5 -67 -5t-67 5v217l-192 450q42 24 76 24t50 -13t28 -43l63 -154q26 -68 43 -134h6q16 58 47 138zM153 792l213 129q18 -14 35 -43.5t19 -57.5l-229 -92q-14 8 -25 27t-13 37z" />
    <glyph glyph-name="Thorn" unicode="&#xde;" horiz-adv-x="581" 
d="M217 585l90 1q54 0 98.5 -13.5t75.5 -41.5t48 -69.5t17 -96.5q0 -56 -17 -98t-48.5 -70t-75.5 -42.5t-98 -14.5h-90v-140q-28 -5 -67 -5t-67 5v683q28 5 67 5t67 -5v-98zM299 482h-82v-238q27 1 60 0t62 6.5t49 35t20 77.5q0 25 -6 47t-18.5 38t-33.5 25t-51 9z" />
    <glyph glyph-name="germandbls" unicode="&#xdf;" horiz-adv-x="642" 
d="M100 0v375l-86 -1q-3 12 -4 25t-1 26t1 25.5t4 25.5l86 -1v28q0 95 62.5 145.5t167.5 50.5q52 0 95.5 -14.5t74 -41.5t47.5 -64.5t17 -83.5q0 -36 -16 -77q-33 -10 -52.5 -27t-19.5 -37q-1 -23 28 -49l38 -36q72 -69 72 -136q0 -33 -14.5 -60t-39.5 -46.5t-59 -30
t-74 -10.5q-78 0 -136 29q0 11 3.5 24t8.5 25.5t11.5 23.5t14.5 18q22 -11 42 -16t37 -5q29 0 48.5 13.5t19.5 35.5q0 13 -8 28.5t-27 32.5l-41 37q-63 57 -63 111q0 35 24.5 68t66.5 50q3 15 3 31q0 46 -26 76.5t-75 30.5q-97 0 -97 -110v-489q-17 -3 -33.5 -4t-33.5 -1
t-33 1t-33 4z" />
    <glyph glyph-name="agrave" unicode="&#xe0;" horiz-adv-x="510" 
d="M473 60q-5 -18 -18 -38t-26 -30q-65 8 -95 57q-65 -63 -142 -63q-39 0 -68.5 12.5t-49 33.5t-29 48t-9.5 56q0 42 14.5 73.5t41 52.5t62 32t77.5 11q54 0 84 -3v27q0 76 -74 76q-50 0 -152 -35q-28 31 -34 93q106 45 219 45q75 0 123 -42t48 -127v-205q0 -53 28 -74z
M221 85q50 0 94 44v87q-16 1 -31 2t-29 1q-44 0 -67 -16.5t-23 -54.5q0 -30 15 -46.5t41 -16.5zM192 755l149 -164q-7 -18 -22.5 -32.5t-32.5 -19.5l-178 136q8 25 33 48t51 32z" />
    <glyph glyph-name="aacute" unicode="&#xe1;" horiz-adv-x="510" 
d="M473 60q-5 -18 -18 -38t-26 -30q-65 8 -95 57q-65 -63 -142 -63q-39 0 -68.5 12.5t-49 33.5t-29 48t-9.5 56q0 42 14.5 73.5t41 52.5t62 32t77.5 11q54 0 84 -3v27q0 76 -74 76q-50 0 -152 -35q-28 31 -34 93q106 45 219 45q75 0 123 -42t48 -127v-205q0 -53 28 -74z
M221 85q50 0 94 44v87q-16 1 -31 2t-29 1q-44 0 -67 -16.5t-23 -54.5q0 -30 15 -46.5t41 -16.5zM163 591l150 164q26 -8 50.5 -31t33.5 -49l-179 -136q-40 13 -55 52z" />
    <glyph glyph-name="acircumflex" unicode="&#xe2;" horiz-adv-x="510" 
d="M473 60q-5 -18 -18 -38t-26 -30q-65 8 -95 57q-65 -63 -142 -63q-39 0 -68.5 12.5t-49 33.5t-29 48t-9.5 56q0 42 14.5 73.5t41 52.5t62 32t77.5 11q54 0 84 -3v27q0 76 -74 76q-50 0 -152 -35q-28 31 -34 93q106 45 219 45q75 0 123 -42t48 -127v-205q0 -53 28 -74z
M221 85q50 0 94 44v87q-16 1 -31 2t-29 1q-44 0 -67 -16.5t-23 -54.5q0 -30 15 -46.5t41 -16.5zM343 549l-93 89l-98 -95q-38 14 -59 51l105 135q48 16 109 0l94 -125q-8 -19 -25 -34.5t-33 -20.5z" />
    <glyph glyph-name="atilde" unicode="&#xe3;" horiz-adv-x="510" 
d="M473 60q-5 -18 -18 -38t-26 -30q-65 8 -95 57q-65 -63 -142 -63q-39 0 -68.5 12.5t-49 33.5t-29 48t-9.5 56q0 42 14.5 73.5t41 52.5t62 32t77.5 11q54 0 84 -3v27q0 76 -74 76q-50 0 -152 -35q-28 31 -34 93q106 45 219 45q75 0 123 -42t48 -127v-205q0 -53 28 -74z
M221 85q50 0 94 44v87q-16 1 -31 2t-29 1q-44 0 -67 -16.5t-23 -54.5q0 -30 15 -46.5t41 -16.5zM253 572l-49 24q-7 4 -14 6.5t-15 2.5q-9 0 -19 -5t-20 -19l-10 -14q-19 1 -37 12t-25 28l9 20q14 40 45.5 60t65.5 20q32 0 57 -16l49 -25q8 -4 15 -6.5t15 -2.5q17 -1 38 25
l10 13q18 0 36.5 -11.5t25.5 -28.5l-9 -19q-39 -80 -108 -80q-32 0 -60 16z" />
    <glyph glyph-name="adieresis" unicode="&#xe4;" horiz-adv-x="510" 
d="M473 60q-5 -18 -18 -38t-26 -30q-65 8 -95 57q-65 -63 -142 -63q-39 0 -68.5 12.5t-49 33.5t-29 48t-9.5 56q0 42 14.5 73.5t41 52.5t62 32t77.5 11q54 0 84 -3v27q0 76 -74 76q-50 0 -152 -35q-28 31 -34 93q106 45 219 45q75 0 123 -42t48 -127v-205q0 -53 28 -74z
M221 85q50 0 94 44v87q-16 1 -31 2t-29 1q-44 0 -67 -16.5t-23 -54.5q0 -30 15 -46.5t41 -16.5zM287 663q23 14 57 14q32 0 57 -14q8 -22 8 -46q0 -19 -3.5 -32t-12.5 -17.5t-21.5 -6.5t-27.5 -2q-16 0 -31 3t-26 11q-5 10 -6.5 21.5t-1.5 23.5q0 26 8 45zM93 663
q23 14 57 14q32 0 57 -14q8 -22 8 -46q0 -19 -3.5 -32t-12.5 -17.5t-21.5 -6.5t-27.5 -2q-16 0 -31 3t-26 11q-5 10 -6.5 21.5t-1.5 23.5q0 26 8 45z" />
    <glyph glyph-name="aring" unicode="&#xe5;" horiz-adv-x="510" 
d="M473 60q-5 -18 -18 -38t-26 -30q-65 8 -95 57q-65 -63 -142 -63q-39 0 -68.5 12.5t-49 33.5t-29 48t-9.5 56q0 42 14.5 73.5t41 52.5t62 32t77.5 11q54 0 84 -3v27q0 76 -74 76q-50 0 -152 -35q-28 31 -34 93q106 45 219 45q75 0 123 -42t48 -127v-205q0 -53 28 -74z
M221 85q50 0 94 44v87q-16 1 -31 2t-29 1q-44 0 -67 -16.5t-23 -54.5q0 -30 15 -46.5t41 -16.5zM152 576q-36 34 -36 86q0 26 10 48t27 38.5t41 25.5t53 9t53 -9.5t41.5 -26t27 -38.5t9.5 -47t-9.5 -47t-27 -38.5t-41.5 -26t-53 -9.5q-57 0 -95 35zM211 700q-8 -8 -11 -17.5
t-3 -20.5q0 -22 13.5 -37t36.5 -15q22 0 36 15t14 37t-14 37.5t-36 15.5q-10 0 -19.5 -3.5t-16.5 -11.5z" />
    <glyph glyph-name="ae" unicode="&#xe6;" horiz-adv-x="768" 
d="M719 206h-274q3 -56 25 -87t78 -31q28 0 61 8.5t70 26.5q30 -29 38 -80q-80 -57 -190 -57q-111 0 -166 76q-73 -76 -175 -76q-36 0 -64 12.5t-47 33.5t-29 48t-10 56q0 42 14.5 73.5t41 52.5t62 32t77.5 11q23 0 43.5 -1t40.5 -3v29q0 75 -73 75q-56 0 -153 -35
q-28 31 -34 93q106 45 210 45q83 0 127 -53q56 55 143 55q43 0 79 -15.5t61.5 -44t40 -67.5t14.5 -85q0 -25 -3 -47.5t-8 -44.5zM221 85q58 0 106 54q-10 40 -12 77q-16 1 -31 2t-29 1q-42 0 -66 -16.5t-24 -54.5q0 -30 15 -46.5t41 -16.5zM527 416q-76 0 -82 -118h162v11
q0 48 -19 77.5t-61 29.5z" />
    <glyph glyph-name="ccedilla" unicode="&#xe7;" horiz-adv-x="473" 
d="M190 -76q11 42 21 65q-86 13 -130 82.5t-44 174.5q0 68 17.5 118t47.5 82.5t68.5 48t80.5 15.5q44 0 79.5 -12.5t60 -34t38 -50.5t13.5 -61t-16.5 -49.5t-49.5 -17.5q-17 0 -52 5q0 63 -15.5 92.5t-57.5 29.5q-80 0 -80 -166q0 -82 23 -119t74 -37q26 0 56 11t62 35
q16 -10 31.5 -32.5t19.5 -42.5q-61 -61 -154 -73q-7 -12 -10 -22q45 -3 71 -27t26 -66q0 -21 -10 -39t-27.5 -32t-40.5 -22t-49 -8q-54 0 -85 22q1 34 23 60q22 -13 48 -13q40 0 40 33q0 19 -11.5 26t-25.5 7q-12 0 -22 -3q-13 7 -20 20z" />
    <glyph glyph-name="egrave" unicode="&#xe8;" horiz-adv-x="498" 
d="M446 206h-276q3 -55 25.5 -86.5t78.5 -31.5q58 0 133 34q29 -30 37 -79q-80 -57 -192 -57q-106 0 -160.5 65.5t-54.5 194.5q0 60 14 108.5t41 83t66 53.5t89 19q51 0 90 -15.5t66 -44t40.5 -67.5t13.5 -85q0 -25 -3 -47.5t-8 -44.5zM253 416q-78 0 -84 -118h166v12
q0 48 -20 77t-62 29zM199 755l149 -164q-7 -18 -22.5 -32.5t-32.5 -19.5l-178 136q8 25 33 48t51 32z" />
    <glyph glyph-name="eacute" unicode="&#xe9;" horiz-adv-x="498" 
d="M446 206h-276q3 -55 25.5 -86.5t78.5 -31.5q58 0 133 34q29 -30 37 -79q-80 -57 -192 -57q-106 0 -160.5 65.5t-54.5 194.5q0 60 14 108.5t41 83t66 53.5t89 19q51 0 90 -15.5t66 -44t40.5 -67.5t13.5 -85q0 -25 -3 -47.5t-8 -44.5zM253 416q-78 0 -84 -118h166v12
q0 48 -20 77t-62 29zM170 591l150 164q26 -8 50.5 -31t33.5 -49l-179 -136q-40 13 -55 52z" />
    <glyph glyph-name="ecircumflex" unicode="&#xea;" horiz-adv-x="498" 
d="M446 206h-276q3 -55 25.5 -86.5t78.5 -31.5q58 0 133 34q29 -30 37 -79q-80 -57 -192 -57q-106 0 -160.5 65.5t-54.5 194.5q0 60 14 108.5t41 83t66 53.5t89 19q51 0 90 -15.5t66 -44t40.5 -67.5t13.5 -85q0 -25 -3 -47.5t-8 -44.5zM253 416q-78 0 -84 -118h166v12
q0 48 -20 77t-62 29zM351 549l-93 89l-98 -95q-38 14 -59 51l105 135q48 16 109 0l94 -125q-8 -19 -25 -34.5t-33 -20.5z" />
    <glyph glyph-name="edieresis" unicode="&#xeb;" horiz-adv-x="498" 
d="M446 206h-276q3 -55 25.5 -86.5t78.5 -31.5q58 0 133 34q29 -30 37 -79q-80 -57 -192 -57q-106 0 -160.5 65.5t-54.5 194.5q0 60 14 108.5t41 83t66 53.5t89 19q51 0 90 -15.5t66 -44t40.5 -67.5t13.5 -85q0 -25 -3 -47.5t-8 -44.5zM253 416q-78 0 -84 -118h166v12
q0 48 -20 77t-62 29zM295 663q23 14 57 14q32 0 57 -14q8 -22 8 -46q0 -19 -3.5 -32t-12.5 -17.5t-21.5 -6.5t-27.5 -2q-16 0 -31 3t-26 11q-5 10 -6.5 21.5t-1.5 23.5q0 26 8 45zM101 663q23 14 57 14q32 0 57 -14q8 -22 8 -46q0 -19 -3.5 -32t-12.5 -17.5t-21.5 -6.5
t-27.5 -2q-16 0 -31 3t-26 11q-5 10 -6.5 21.5t-1.5 23.5q0 26 8 45z" />
    <glyph glyph-name="igrave" unicode="&#xec;" horiz-adv-x="285" 
d="M218 395v-395q-30 -5 -64.5 -5t-66.5 5v348q0 55 -45 55h-13q-6 23 -6 46t6 46q47 5 76 5h17q44 0 70 -28t26 -77zM77 755l149 -164q-7 -18 -22.5 -32.5t-32.5 -19.5l-178 136q8 25 33 48t51 32z" />
    <glyph glyph-name="iacute" unicode="&#xed;" horiz-adv-x="285" 
d="M218 395v-395q-30 -5 -64.5 -5t-66.5 5v348q0 55 -45 55h-13q-6 23 -6 46t6 46q47 5 76 5h17q44 0 70 -28t26 -77zM49 591l150 164q26 -8 50.5 -31t33.5 -49l-179 -136q-40 13 -55 52z" />
    <glyph glyph-name="icircumflex" unicode="&#xee;" horiz-adv-x="285" 
d="M218 395v-395q-30 -5 -64.5 -5t-66.5 5v348q0 55 -45 55h-13q-6 23 -6 46t6 46q47 5 76 5h17q44 0 70 -28t26 -77zM229 549l-93 89l-98 -95q-38 14 -59 51l105 135q48 16 109 0l94 -125q-8 -19 -25 -34.5t-33 -20.5z" />
    <glyph glyph-name="idieresis" unicode="&#xef;" horiz-adv-x="285" 
d="M218 395v-395q-30 -5 -64.5 -5t-66.5 5v348q0 55 -45 55h-13q-6 23 -6 46t6 46q47 5 76 5h17q44 0 70 -28t26 -77zM172 663q23 14 57 14q32 0 57 -14q8 -22 8 -46q0 -19 -3.5 -32t-12.5 -17.5t-21.5 -6.5t-27.5 -2q-16 0 -31 3t-26 11q-5 10 -6.5 21.5t-1.5 23.5
q0 26 8 45zM-22 663q23 14 57 14q32 0 57 -14q8 -22 8 -46q0 -19 -3.5 -32t-12.5 -17.5t-21.5 -6.5t-27.5 -2q-16 0 -31 3t-26 11q-5 10 -6.5 21.5t-1.5 23.5q0 26 8 45z" />
    <glyph glyph-name="eth" unicode="&#xf0;" horiz-adv-x="519" 
d="M97 571l79 54q-31 23 -71 45q3 23 18 47t33 33q59 -24 112 -62l85 59q36 -24 45 -63l-68 -47q152 -147 152 -390q0 -60 -15 -108.5t-43.5 -82t-70.5 -52t-95 -18.5t-94.5 18.5t-70 52t-43.5 80t-15 102.5q0 57 15.5 102.5t43.5 78t67.5 50t87.5 17.5q26 0 55 -12
q-18 48 -68 98l-95 -65q-37 27 -44 63zM348 247q0 73 -12 123q-38 23 -76 23q-91 0 -91 -155t89 -155q90 0 90 164z" />
    <glyph glyph-name="ntilde" unicode="&#xf1;" horiz-adv-x="546" 
d="M481 334v-218q0 -64 21 -95q-32 -28 -77 -28q-43 0 -59 19.5t-16 61.5v233q0 45 -11 63t-41 18q-53 0 -99 -48v-340q-15 -3 -31.5 -4t-33.5 -1t-33.5 1t-31.5 4v495l6 7h50q56 0 70 -60q73 63 145 63t106.5 -46.5t34.5 -124.5zM286 572l-49 24q-7 4 -14 6.5t-15 2.5
q-9 0 -19 -5t-20 -19l-10 -14q-19 1 -37 12t-25 28l9 20q14 40 45.5 60t65.5 20q32 0 57 -16l49 -25q8 -4 15 -6.5t15 -2.5q17 -1 38 25l10 13q18 0 36.5 -11.5t25.5 -28.5l-9 -19q-39 -80 -108 -80q-32 0 -60 16z" />
    <glyph glyph-name="ograve" unicode="&#xf2;" horiz-adv-x="521" 
d="M413 454q71 -71 71 -206q0 -60 -15 -108.5t-43.5 -82.5t-70.5 -52.5t-95 -18.5t-94.5 18.5t-70 52.5t-43.5 82.5t-15 108.5q0 121 58 191.5t165 70.5q94 0 153 -56zM260 412q-89 0 -89 -164q0 -163 89 -163q90 0 90 163q0 164 -90 164zM205 755l149 -164
q-7 -18 -22.5 -32.5t-32.5 -19.5l-178 136q8 25 33 48t51 32z" />
    <glyph glyph-name="oacute" unicode="&#xf3;" horiz-adv-x="521" 
d="M413 454q71 -71 71 -206q0 -60 -15 -108.5t-43.5 -82.5t-70.5 -52.5t-95 -18.5t-94.5 18.5t-70 52.5t-43.5 82.5t-15 108.5q0 121 58 191.5t165 70.5q94 0 153 -56zM260 412q-89 0 -89 -164q0 -163 89 -163q90 0 90 163q0 164 -90 164zM176 591l150 164q26 -8 50.5 -31
t33.5 -49l-179 -136q-40 13 -55 52z" />
    <glyph glyph-name="ocircumflex" unicode="&#xf4;" horiz-adv-x="521" 
d="M413 454q71 -71 71 -206q0 -60 -15 -108.5t-43.5 -82.5t-70.5 -52.5t-95 -18.5t-94.5 18.5t-70 52.5t-43.5 82.5t-15 108.5q0 121 58 191.5t165 70.5q94 0 153 -56zM260 412q-89 0 -89 -164q0 -163 89 -163q90 0 90 163q0 164 -90 164zM356 549l-93 89l-98 -95
q-38 14 -59 51l105 135q48 16 109 0l94 -125q-8 -19 -25 -34.5t-33 -20.5z" />
    <glyph glyph-name="otilde" unicode="&#xf5;" horiz-adv-x="521" 
d="M413 454q71 -71 71 -206q0 -60 -15 -108.5t-43.5 -82.5t-70.5 -52.5t-95 -18.5t-94.5 18.5t-70 52.5t-43.5 82.5t-15 108.5q0 121 58 191.5t165 70.5q94 0 153 -56zM260 412q-89 0 -89 -164q0 -163 89 -163q90 0 90 163q0 164 -90 164zM266 572l-49 24q-7 4 -14 6.5
t-15 2.5q-9 0 -19 -5t-20 -19l-10 -14q-19 1 -37 12t-25 28l9 20q14 40 45.5 60t65.5 20q32 0 57 -16l49 -25q8 -4 15 -6.5t15 -2.5q17 -1 38 25l10 13q18 0 36.5 -11.5t25.5 -28.5l-9 -19q-39 -80 -108 -80q-32 0 -60 16z" />
    <glyph glyph-name="odieresis" unicode="&#xf6;" horiz-adv-x="521" 
d="M413 454q71 -71 71 -206q0 -60 -15 -108.5t-43.5 -82.5t-70.5 -52.5t-95 -18.5t-94.5 18.5t-70 52.5t-43.5 82.5t-15 108.5q0 121 58 191.5t165 70.5q94 0 153 -56zM260 412q-89 0 -89 -164q0 -163 89 -163q90 0 90 163q0 164 -90 164zM300 663q23 14 57 14q32 0 57 -14
q8 -22 8 -46q0 -19 -3.5 -32t-12.5 -17.5t-21.5 -6.5t-27.5 -2q-16 0 -31 3t-26 11q-5 10 -6.5 21.5t-1.5 23.5q0 26 8 45zM106 663q23 14 57 14q32 0 57 -14q8 -22 8 -46q0 -19 -3.5 -32t-12.5 -17.5t-21.5 -6.5t-27.5 -2q-16 0 -31 3t-26 11q-5 10 -6.5 21.5t-1.5 23.5
q0 26 8 45z" />
    <glyph glyph-name="divide" unicode="&#xf7;" horiz-adv-x="530" 
d="M205 427q-10 20 -10 48q3 45 14.5 51t56.5 10q36 -1 52 -10.5t16 -50.5t-14 -50.5t-56 -10.5q-40 0 -59 13zM205 70q-10 19 -10 47q0 44 16.5 51.5t54.5 9.5q36 -2 52 -10t16 -51t-15.5 -51t-54.5 -9q-40 0 -59 13zM476 243h-422q-3 11 -4 24.5t-1 28.5q0 14 1 28.5
t4 26.5h422q2 -12 3.5 -26.5t1.5 -28.5q0 -30 -5 -53z" />
    <glyph glyph-name="oslash" unicode="&#xf8;" horiz-adv-x="524" 
d="M415 453q70 -70 70 -205q0 -122 -58 -192t-165 -70q-49 0 -88 15l-35 -59q-43 9 -69 38l37 65q-69 69 -69 204q0 60 14.5 108t43 82t70.5 52.5t96 18.5q47 0 86 -15l35 61q45 -11 69 -38zM363 249q0 52 -10 89l-131 -250q19 -8 40 -8q101 0 101 169zM160 249
q0 -56 10 -89l131 249q-19 8 -39 8q-102 0 -102 -168z" />
    <glyph glyph-name="ugrave" unicode="&#xf9;" horiz-adv-x="548" 
d="M65 162v219q0 62 -21 95q33 28 76.5 28t59.5 -20.5t16 -61.5v-233q0 -43 11 -61.5t41 -18.5q53 0 99 46v341q22 5 64.5 5t66.5 -5v-355q0 -59 28 -83q-5 -18 -17.5 -37t-26.5 -29q-73 7 -101 71q-77 -72 -159 -72q-67 0 -102 47t-35 124zM211 755l149 -164
q-7 -18 -22.5 -32.5t-32.5 -19.5l-178 136q8 25 33 48t51 32z" />
    <glyph glyph-name="uacute" unicode="&#xfa;" horiz-adv-x="548" 
d="M65 162v219q0 62 -21 95q33 28 76.5 28t59.5 -20.5t16 -61.5v-233q0 -43 11 -61.5t41 -18.5q53 0 99 46v341q22 5 64.5 5t66.5 -5v-355q0 -59 28 -83q-5 -18 -17.5 -37t-26.5 -29q-73 7 -101 71q-77 -72 -159 -72q-67 0 -102 47t-35 124zM184 591l150 164q26 -8 50.5 -31
t33.5 -49l-179 -136q-40 13 -55 52z" />
    <glyph glyph-name="ucircumflex" unicode="&#xfb;" horiz-adv-x="548" 
d="M65 162v219q0 62 -21 95q33 28 76.5 28t59.5 -20.5t16 -61.5v-233q0 -43 11 -61.5t41 -18.5q53 0 99 46v341q22 5 64.5 5t66.5 -5v-355q0 -59 28 -83q-5 -18 -17.5 -37t-26.5 -29q-73 7 -101 71q-77 -72 -159 -72q-67 0 -102 47t-35 124zM362 549l-93 89l-98 -95
q-38 14 -59 51l105 135q48 16 109 0l94 -125q-8 -19 -25 -34.5t-33 -20.5z" />
    <glyph glyph-name="udieresis" unicode="&#xfc;" horiz-adv-x="548" 
d="M65 162v219q0 62 -21 95q33 28 76.5 28t59.5 -20.5t16 -61.5v-233q0 -43 11 -61.5t41 -18.5q53 0 99 46v341q22 5 64.5 5t66.5 -5v-355q0 -59 28 -83q-5 -18 -17.5 -37t-26.5 -29q-73 7 -101 71q-77 -72 -159 -72q-67 0 -102 47t-35 124zM306 663q23 14 57 14
q32 0 57 -14q8 -22 8 -46q0 -19 -3.5 -32t-12.5 -17.5t-21.5 -6.5t-27.5 -2q-16 0 -31 3t-26 11q-5 10 -6.5 21.5t-1.5 23.5q0 26 8 45zM112 663q23 14 57 14q32 0 57 -14q8 -22 8 -46q0 -19 -3.5 -32t-12.5 -17.5t-21.5 -6.5t-27.5 -2q-16 0 -31 3t-26 11q-5 10 -6.5 21.5
t-1.5 23.5q0 26 8 45z" />
    <glyph glyph-name="yacute" unicode="&#xfd;" horiz-adv-x="483" 
d="M475 484l-128 -470q-33 -119 -83.5 -176t-151.5 -57q-56 0 -109 19q-2 22 6 50t21 43q44 -14 83 -14q77 0 108 102l4 13q-38 1 -60 14t-31 44l-124 434q41 19 73 19t47.5 -12.5t24.5 -44.5l57 -211q6 -23 29 -139q1 -7 9 -7l98 405q23 6 58 6t64 -10zM156 591l150 164
q26 -8 50.5 -31t33.5 -49l-179 -136q-40 13 -55 52z" />
    <glyph glyph-name="thorn" unicode="&#xfe;" horiz-adv-x="531" 
d="M301 -9q-52 0 -106 26v-152q0 -45 -16 -63t-55 -18h-49l-6 7v938l6 7h49q39 0 55 -18t16 -63v-195q55 46 122 46q82 0 129 -68.5t47 -188.5q0 -60 -15.5 -108t-42 -81t-61 -51t-73.5 -18zM285 400q-53 0 -90 -51v-230q44 -29 79 -29q39 0 62.5 41.5t23.5 119.5t-21 113.5
t-54 35.5z" />
    <glyph glyph-name="ydieresis" unicode="&#xff;" horiz-adv-x="483" 
d="M475 484l-128 -470q-33 -119 -83.5 -176t-151.5 -57q-56 0 -109 19q-2 22 6 50t21 43q44 -14 83 -14q77 0 108 102l4 13q-38 1 -60 14t-31 44l-124 434q41 19 73 19t47.5 -12.5t24.5 -44.5l57 -211q6 -23 29 -139q1 -7 9 -7l98 405q23 6 58 6t64 -10zM280 663
q23 14 57 14q32 0 57 -14q8 -22 8 -46q0 -19 -3.5 -32t-12.5 -17.5t-21.5 -6.5t-27.5 -2q-16 0 -31 3t-26 11q-5 10 -6.5 21.5t-1.5 23.5q0 26 8 45zM86 663q23 14 57 14q32 0 57 -14q8 -22 8 -46q0 -19 -3.5 -32t-12.5 -17.5t-21.5 -6.5t-27.5 -2q-16 0 -31 3t-26 11
q-5 10 -6.5 21.5t-1.5 23.5q0 26 8 45z" />
    <glyph glyph-name="Aogonek" unicode="&#x104;" horiz-adv-x="625" 
d="M426 155l-49 -1h-140q-33 0 -49 1l-47 -156q-21 -5 -59.5 -5t-62.5 9l-5 7l223 673q37 5 80 5t75 -6l219 -673q-87 -50 -87 -103q0 -19 14 -29.5t24.5 -10.5h21t39.5 15q26 -23 29 -61q-48 -38 -106 -38q-57 0 -88.5 26.5t-31.5 70.5q0 64 67 121q-25 14 -39 64zM221 261
l45 1h86q34 -1 42 -1l-30 102q-34 114 -54 194h-6q-9 -43 -44 -169z" />
    <glyph glyph-name="aogonek" unicode="&#x105;" horiz-adv-x="539" 
d="M473 -119q27 -25 28 -61q-47 -38 -104 -38q-58 0 -90 26t-32 71q0 76 88 140q-19 16 -28 31q-67 -64 -144 -64q-39 0 -68 12.5t-48.5 33.5t-29 48t-9.5 56q0 42 14.5 73.5t41 52.5t62 32t77.5 11q54 0 84 -3v27q0 76 -74 76q-50 0 -152 -35q-28 31 -34 93q106 45 219 45
q75 0 123 -42t48 -127v-205q0 -49 31 -73q-5 -19 -19.5 -37.5t-37.5 -39.5q-45 -41 -45 -78q0 -17 13 -29t35 -12q23 0 51 16zM221 85q50 0 94 44v87q-16 1 -31 2t-29 1q-39 0 -64.5 -16.5t-25.5 -54.5q0 -30 15 -46.5t41 -16.5z" />
    <glyph glyph-name="Cacute" unicode="&#x106;" horiz-adv-x="606" 
d="M446 428v10q0 33 -7 60.5t-22 48t-38.5 32t-56.5 11.5q-73 0 -106 -65.5t-33 -198.5q0 -106 40.5 -164.5t110.5 -58.5q37 0 80.5 17.5t93.5 55.5q21 -14 40 -39t24 -48q-22 -22 -51.5 -40.5t-63.5 -32.5t-71 -22t-74 -8q-74 0 -125 28.5t-83.5 77t-47 112.5t-14.5 135
q0 90 22 157.5t59.5 112t88 67t107.5 22.5q59 0 106.5 -16t80.5 -43.5t51 -64t18 -78.5q0 -75 -76 -75q-11 0 -24 1.5t-29 5.5zM211 792l213 129q18 -14 35 -43.5t19 -57.5l-229 -92q-14 8 -25 27t-13 37z" />
    <glyph glyph-name="cacute" unicode="&#x107;" horiz-adv-x="473" 
d="M324 290q0 60 -14.5 91t-58.5 31q-80 0 -80 -166q0 -82 23 -119t74 -37q26 0 56 11t62 35q16 -10 31.5 -32.5t19.5 -42.5q-34 -34 -83.5 -54.5t-103.5 -20.5q-105 0 -159 71.5t-54 196.5q0 64 17.5 112t47.5 80t68.5 48t80.5 16q44 0 79.5 -12.5t60 -34t38 -50.5
t13.5 -61t-16.5 -49.5t-49.5 -17.5q-30 0 -52 5zM167 591l150 164q26 -8 50.5 -31t33.5 -49l-179 -136q-40 13 -55 52z" />
    <glyph glyph-name="Ccaron" unicode="&#x10c;" horiz-adv-x="606" 
d="M446 428v10q0 33 -7 60.5t-22 48t-38.5 32t-56.5 11.5q-73 0 -106 -65.5t-33 -198.5q0 -106 40.5 -164.5t110.5 -58.5q37 0 80.5 17.5t93.5 55.5q21 -14 40 -39t24 -48q-22 -22 -51.5 -40.5t-63.5 -32.5t-71 -22t-74 -8q-74 0 -125 28.5t-83.5 77t-47 112.5t-14.5 135
q0 90 22 157.5t59.5 112t88 67t107.5 22.5q59 0 106.5 -16t80.5 -43.5t51 -64t18 -78.5q0 -75 -76 -75q-11 0 -24 1.5t-29 5.5zM206 906l115 -74l118 84q16 -6 33.5 -21.5t22.5 -32.5l-118 -118q-50 -13 -112 -1l-113 108q6 19 22.5 34.5t31.5 20.5z" />
    <glyph glyph-name="ccaron" unicode="&#x10d;" horiz-adv-x="473" 
d="M324 290q0 60 -14.5 91t-58.5 31q-80 0 -80 -166q0 -82 23 -119t74 -37q26 0 56 11t62 35q16 -10 31.5 -32.5t19.5 -42.5q-34 -34 -83.5 -54.5t-103.5 -20.5q-105 0 -159 71.5t-54 196.5q0 64 17.5 112t47.5 80t68.5 48t80.5 16q44 0 79.5 -12.5t60 -34t38 -50.5
t13.5 -61t-16.5 -49.5t-49.5 -17.5q-30 0 -52 5zM157 740l92 -89l100 96q40 -15 59 -52l-107 -136q-23 -7 -54 -6.5t-54 6.5l-95 126q8 19 25.5 34t33.5 21z" />
    <glyph glyph-name="Dcaron" unicode="&#x10e;" horiz-adv-x="658" 
d="M505 45q-30 -26 -81.5 -38t-105.5 -12q-27 0 -83.5 1t-144.5 3l-7 6v673l7 6q58 2 116.5 3t119.5 1q84 0 139.5 -27t88.5 -74.5t46.5 -110.5t13.5 -135q0 -100 -22.5 -172.5t-86.5 -123.5zM450 502q-30 80 -124 80h-62t-47 1v-483q19 1 43.5 1t49.5 1t46.5 4t35.5 10
q26 14 42.5 37.5t25.5 54t12.5 66t3.5 73.5q0 43 -5.5 80t-20.5 75zM197 906l115 -74l118 84q16 -6 33.5 -21.5t22.5 -32.5l-118 -118q-50 -13 -112 -1l-113 108q6 19 22.5 34.5t31.5 20.5z" />
    <glyph glyph-name="dcaron" unicode="&#x10f;" horiz-adv-x="632" 
d="M234 506q48 0 102 -27v250l7 7h50q39 0 55 -18t16 -63v-512q0 -61 28 -83q-4 -18 -16.5 -38t-26.5 -30q-65 6 -94 59q-59 -65 -143 -65q-43 0 -75.5 18.5t-54.5 52t-33 81.5t-11 108q0 61 15.5 109t42 81.5t62 51.5t76.5 18zM246 93q52 0 90 50v234q-22 14 -42 21.5
t-37 7.5q-39 0 -62.5 -41t-23.5 -121q0 -78 21 -114.5t54 -36.5zM523 565l12 225q24 7 59 2t54 -19l-50 -213q-17 -6 -39.5 -4.5t-35.5 9.5z" />
    <glyph glyph-name="Eogonek" unicode="&#x118;" horiz-adv-x="572" 
d="M215 171l-1 -62q42 2 70 2h245q0 -32 -3 -49q-6 -41 -49 -59q-39 -16 -60.5 -43.5t-21.5 -53.5q0 -40 44 -40q28 0 54 15q26 -23 29 -61q-49 -32 -77 -35.5t-57 -1t-60.5 27t-31.5 69.5q0 67 65 118h-202q-36 0 -56.5 21.5t-20.5 58.5v598l7 7h417q5 -25 5 -53.5
t-11 -59.5h-286l1 -69v-103q25 1 65 1h169q8 -23 8 -55t-8 -55h-234v-118z" />
    <glyph glyph-name="eogonek" unicode="&#x119;" horiz-adv-x="498" 
d="M446 206h-276q3 -55 25.5 -86.5t78.5 -31.5q58 0 133 34q29 -30 37 -79q-29 -21 -65 -34q-66 -50 -66 -103q0 -40 44 -40q29 0 55 15q27 -25 28 -61q-49 -38 -105 -38q-57 0 -89 26t-32 77q0 50 55 102q-4 -1 -17 -1q-106 0 -160.5 65.5t-54.5 194.5q0 60 14 108.5t41 83
t66 53.5t89 19q51 0 90 -15.5t66 -44t40.5 -67.5t13.5 -85q0 -25 -3 -47.5t-8 -44.5zM253 416q-78 0 -84 -118h166v12q0 48 -20 77t-62 29z" />
    <glyph glyph-name="Ecaron" unicode="&#x11a;" horiz-adv-x="570" 
d="M215 171l-1 -62l70 2h245q0 -32 -3 -49q-11 -64 -86 -64h-281q-36 0 -56.5 21.5t-20.5 58.5v598l7 7h417q5 -25 5 -53.5t-11 -59.5h-286l1 -69v-103l65 1h169q8 -23 8 -55t-8 -55h-234v-118zM180 906l115 -74l118 84q16 -6 33.5 -21.5t22.5 -32.5l-118 -118
q-50 -13 -112 -1l-113 108q6 19 22.5 34.5t31.5 20.5z" />
    <glyph glyph-name="ecaron" unicode="&#x11b;" horiz-adv-x="498" 
d="M446 206h-276q3 -55 25.5 -86.5t78.5 -31.5q58 0 133 34q29 -30 37 -79q-80 -57 -192 -57q-106 0 -160.5 65.5t-54.5 194.5q0 60 14 108.5t41 83t66 53.5t89 19q51 0 90 -15.5t66 -44t40.5 -67.5t13.5 -85q0 -25 -3 -47.5t-8 -44.5zM253 416q-78 0 -84 -118h166v12
q0 48 -20 77t-62 29zM160 740l92 -89l100 96q40 -15 59 -52l-107 -136q-23 -7 -54 -6.5t-54 6.5l-95 126q8 19 25.5 34t33.5 21z" />
    <glyph glyph-name="Hbar" unicode="&#x126;" horiz-adv-x="689" 
d="M221 295l1 -74v-221q-28 -5 -68.5 -5t-66.5 5v491h-67q-7 24 -7 49.5t7 50.5h67v92q26 5 66.5 5t68.5 -5v-92h245v92q27 5 68 5t67 -5v-92h68q6 -27 6 -51t-6 -49h-68v-491q-28 -5 -68 -5t-67 5v221l1 74l-53 -1h-141zM221 405l53 1h141l53 -1l-1 75v11h-245v-11z" />
    <glyph glyph-name="hbar" unicode="&#x127;" horiz-adv-x="546" 
d="M199 655v-9l152 2q5 -23 5 -44t-5 -41l-152 1v-120q70 61 141 61q72 0 106.5 -46.5t34.5 -124.5v-218q0 -64 21 -95q-32 -28 -77 -28q-43 0 -59 19.5t-16 61.5v233q0 45 -11 63t-41 18q-53 0 -99 -48v-340q-15 -3 -30.5 -4t-32.5 -1q-16 0 -32 1t-32 4v564l-73 -1
q-6 22 -6 41q0 17 6 44l73 -2v83l6 7h51q39 0 54.5 -18t15.5 -63z" />
    <glyph glyph-name="Itilde" unicode="&#x128;" horiz-adv-x="306" 
d="M86 0v683q25 5 65.5 5t68.5 -5v-683q-28 -5 -68.5 -5t-65.5 5zM160 758l-51 24q-7 4 -15 6.5t-16 2.5q-21 1 -39 -24l-10 -14q-20 1 -39.5 12t-26.5 28l9 19q37 81 114 81q15 1 30 -4t32 -13l51 -24q8 -4 15.5 -6.5t15.5 -2.5q21 -1 39 24l10 13q20 0 39.5 -11t26.5 -28
l-9 -19q-38 -81 -114 -81q-31 0 -62 17z" />
    <glyph glyph-name="itilde" unicode="&#x129;" horiz-adv-x="285" 
d="M218 395v-395q-30 -5 -64.5 -5t-66.5 5v348q0 55 -45 55h-13q-6 23 -6 46t6 46q47 5 76 5h17q44 0 70 -28t26 -77zM139 572l-49 24q-7 4 -14 6.5t-15 2.5q-9 0 -19 -5t-20 -19l-10 -14q-19 1 -37 12t-25 28l9 20q14 40 45.5 60t65.5 20q32 0 57 -16l49 -25q8 -4 15 -6.5
t15 -2.5q17 -1 38 25l10 13q18 0 36.5 -11.5t25.5 -28.5l-9 -19q-39 -80 -108 -80q-32 0 -60 16z" />
    <glyph glyph-name="dotlessi" unicode="&#x131;" horiz-adv-x="285" 
d="M218 395v-395q-30 -5 -64.5 -5t-66.5 5v348q0 55 -45 55h-13q-6 23 -6 46t6 46q47 5 76 5h17q44 0 70 -28t26 -77z" />
    <glyph glyph-name="IJ" unicode="&#x132;" horiz-adv-x="761" 
d="M86 0v683q25 5 65.5 5t68.5 -5v-683q-28 -5 -68.5 -5t-65.5 5zM359 133q53 -32 103 -32q51 0 72 33.5t21 106.5v442q28 5 67 5t67 -5v-427q0 -60 -9.5 -109t-34.5 -84.5t-67 -54t-108 -18.5q-89 0 -159 43q10 56 48 100z" />
    <glyph glyph-name="ij" unicode="&#x133;" horiz-adv-x="570" 
d="M218 395v-395q-15 -3 -31.5 -4t-33.5 -1t-33.5 1t-32.5 4v348q0 55 -45 55h-13q-6 22 -6 46q0 22 6 46q23 2 42.5 3.5t33.5 1.5h17q45 0 70.5 -28t25.5 -77zM67 689q23 13 66 13q25 0 40.5 -4t22.5 -9.5t9 -20.5t2 -31q-3 -51 -12.5 -56t-62.5 -10q-56 2 -65.5 15
t-9.5 51q0 29 10 52zM503 395v-371q0 -55 -6.5 -95.5t-25 -69.5t-51.5 -48t-86 -31q-33 28 -36 80q22 10 36.5 20.5t23.5 25t13 33t4 44.5v365q0 55 -46 55h-22q-6 22 -6 46q0 22 6 46q26 2 47 3.5t38 1.5h18q43 0 68 -28t25 -77zM351 689q23 13 66 13q25 0 40 -4t22 -10
t9.5 -20.5t2.5 -30.5q-5 -53 -17 -58t-58 -8q-54 2 -64.5 14.5t-10.5 51.5q0 29 10 52z" />
    <glyph glyph-name="Jcircumflex" unicode="&#x134;" horiz-adv-x="460" 
d="M58 133q53 -32 103 -32q51 0 72 33.5t21 106.5v442q28 5 67 5t67 -5v-427q0 -60 -9.5 -109t-34.5 -84.5t-67 -54t-108 -18.5q-89 0 -159 43q10 56 48 100zM435 736l-115 74l-118 -84q-16 6 -33 22t-22 34l117 117q57 12 111 0l113 -108q-6 -19 -21.5 -34t-31.5 -21z" />
    <glyph glyph-name="jcircumflex" unicode="&#x135;" horiz-adv-x="292" 
d="M224 395v-371q0 -58 -5.5 -93.5t-23 -67.5t-51.5 -51.5t-89 -31.5q-33 29 -36 80q44 20 60.5 45.5t16.5 77.5v365q0 55 -46 55h-22q-6 23 -6 46t6 46q52 5 85 5h18q43 0 68 -28t25 -77zM237 549l-93 89l-98 -95q-38 14 -59 51l105 135q48 16 109 0l94 -125
q-8 -19 -25 -34.5t-33 -20.5z" />
    <glyph glyph-name="Kcommaaccent" unicode="&#x136;" horiz-adv-x="609" 
d="M598 34q-28 -42 -90 -42q-35 0 -52.5 18t-31.5 61l-46 131q-18 52 -41.5 73.5t-63.5 21.5q-10 0 -56 -2v-295q-26 -5 -67 -5t-67 5v683q26 5 67 5t67 -5v-275l40 1q16 0 24 6.5t18 24.5l111 198q15 27 30 38.5t42 11.5t81 -4l8 -10l-136 -243q-23 -41 -49 -62
q47 -10 72 -38.5t44 -79.5l47 -134q7 -18 8.5 -21.5t6.5 -15.5q14 -28 22 -35t12 -11zM386 -59q11 -24 11 -56q0 -55 -37 -98t-102 -65q-32 11 -41 54q63 39 63 98q0 30 -13 53q23 16 57 20t62 -6z" />
    <glyph glyph-name="kcommaaccent" unicode="&#x137;" horiz-adv-x="513" 
d="M424 193l29 -78q22 -63 48 -82q-35 -40 -88 -40q-30 0 -45 14.5t-28 49.5l-34 92q-13 34 -28.5 46t-36.5 12t-45 -2v-205q-30 -5 -63.5 -5t-63.5 5v729l6 7h51q39 0 54.5 -18.5t15.5 -62.5v-341l25 1q17 0 26 16l69 119q27 50 78 50q24 0 72 -2l6 -8l-93 -160
q-16 -31 -42 -49q61 -20 87 -88zM335 -59q11 -24 11 -56q0 -55 -37 -98t-102 -65q-32 11 -41 54q63 39 63 98q0 30 -13 53q23 16 57 20t62 -6z" />
    <glyph glyph-name="kgreenlandic" unicode="&#x138;" horiz-adv-x="513" 
d="M424 193l29 -78q22 -63 48 -82q-35 -40 -88 -40q-30 0 -45 14.5t-28 49.5l-34 92q-13 34 -28.5 46t-36.5 12t-45 -2v-205q-30 -5 -63.5 -5t-63.5 5v495l6 7h51q39 0 54.5 -18t15.5 -62v-108l25 1q17 0 26 16l69 119q27 50 78 50q24 0 72 -2l6 -8l-93 -160
q-16 -31 -42 -49q61 -20 87 -88z" />
    <glyph glyph-name="Ldot" unicode="&#x13f;" horiz-adv-x="517" 
d="M308 114h186q0 -30 -4 -51q-11 -65 -87 -65h-243q-36 0 -57 21.5t-21 58.5v604l7 7h50q40 0 59 -20.5t19 -65.5v-493q43 4 91 4zM344 411q27 15 61 15q32 0 59 -15q5 -11 7 -25t2 -28q0 -32 -9 -53q-20 -16 -59 -16q-17 0 -29 3t-20 6.5t-12 6.5q-3 5 -5 17t-3 36
q0 32 8 53z" />
    <glyph glyph-name="ldot" unicode="&#x140;" horiz-adv-x="377" 
d="M237 96h31q11 -28 11 -54t-3 -38q-61 -9 -97 -9q-58 0 -85 29.5t-27 92.5v612l7 7h50q39 0 55 -18.5t16 -62.5v-513q0 -46 42 -46zM258 411q27 15 61 15q32 0 59 -15q5 -11 7 -25t2 -28q0 -32 -9 -53q-20 -16 -59 -16q-17 0 -29 3t-20 6.5t-12 6.5q-3 5 -5 17t-3 36
q0 32 8 53z" />
    <glyph glyph-name="Lslash" unicode="&#x141;" horiz-adv-x="526" 
d="M225 603v-182l165 58l10 -5q13 -39 2 -99l-177 -60v-205q43 4 92 4h185q0 -35 -3 -51q-11 -65 -88 -65h-242q-36 0 -57 21.5t-21 58.5v196l-69 -25l-10 5q-14 44 -2 100l81 27v301l7 7h49q40 0 59 -20.5t19 -65.5z" />
    <glyph glyph-name="lslash" unicode="&#x142;" horiz-adv-x="349" 
d="M269 96h32q10 -26 10 -55t-2 -37q-61 -9 -97 -9q-58 0 -85 29.5t-27 92.5v166l-68 -34l-10 5q-13 42 -2 95l80 40v340l7 7h49q39 0 55 -18.5t16 -62.5v-202l77 39l9 -5q13 -40 2 -95l-88 -45v-205q0 -46 42 -46z" />
    <glyph glyph-name="Nacute" unicode="&#x143;" horiz-adv-x="688" 
d="M598 689l7 -7v-680q-31 -7 -78 -7t-82 5l-184 387q-40 88 -60 140l-4 -1q11 -141 11 -272v-254q-28 -5 -63.5 -5t-61.5 5v681q29 7 76 7t82 -5l182 -387l65 -148l3 1q-10 145 -10 274v183q0 45 17 64t57 19h43zM234 792l213 129q18 -14 35 -43.5t19 -57.5l-229 -92
q-14 8 -25 27t-13 37z" />
    <glyph glyph-name="nacute" unicode="&#x144;" horiz-adv-x="546" 
d="M481 334v-218q0 -64 21 -95q-32 -28 -77 -28q-43 0 -59 19.5t-16 61.5v233q0 45 -11 63t-41 18q-53 0 -99 -48v-340q-15 -3 -31.5 -4t-33.5 -1t-33.5 1t-31.5 4v495l6 7h50q56 0 70 -60q73 63 145 63t106.5 -46.5t34.5 -124.5zM195 591l150 164q26 -8 50.5 -31t33.5 -49
l-179 -136q-40 13 -55 52z" />
    <glyph glyph-name="Ncaron" unicode="&#x147;" horiz-adv-x="688" 
d="M598 689l7 -7v-680q-31 -7 -78 -7t-82 5l-184 387q-40 88 -60 140l-4 -1q11 -141 11 -272v-254q-28 -5 -63.5 -5t-61.5 5v681q29 7 76 7t82 -5l182 -387l65 -148l3 1q-10 145 -10 274v183q0 45 17 64t57 19h43zM228 906l115 -74l118 84q16 -6 33.5 -21.5t22.5 -32.5
l-118 -118q-50 -13 -112 -1l-113 108q6 19 22.5 34.5t31.5 20.5z" />
    <glyph glyph-name="ncaron" unicode="&#x148;" horiz-adv-x="546" 
d="M481 334v-218q0 -64 21 -95q-32 -28 -77 -28q-43 0 -59 19.5t-16 61.5v233q0 45 -11 63t-41 18q-53 0 -99 -48v-340q-15 -3 -31.5 -4t-33.5 -1t-33.5 1t-31.5 4v495l6 7h50q56 0 70 -60q73 63 145 63t106.5 -46.5t34.5 -124.5zM185 740l92 -89l100 96q40 -15 59 -52
l-107 -136q-23 -7 -54 -6.5t-54 6.5l-95 126q8 19 25.5 34t33.5 21z" />
    <glyph glyph-name="OE" unicode="&#x152;" horiz-adv-x="907" 
d="M559 172l-1 -62q21 1 38.5 1.5t31.5 0.5h245q0 -59 -18 -86t-70 -27h-315q-45 -7 -79 -10t-58 -3q-69 0 -123 24t-91.5 69.5t-57 111.5t-19.5 150t19.5 150.5t57 112t91.5 69.5t123 24q20 0 54.5 -3.5t83.5 -10.5h380q2 -9 3 -21t1 -26q0 -17 -2.5 -34t-8.5 -32h-286
l1 -54v-118q13 1 29 1h36h170q3 -12 5 -26.5t2 -28.5q0 -15 -2 -29t-5 -26h-235v-117zM332 91q41 0 97 14v472q-53 15 -96 15q-152 0 -152 -251q0 -250 151 -250z" />
    <glyph glyph-name="oe" unicode="&#x153;" horiz-adv-x="814" 
d="M765 206h-274q3 -56 25 -87t78 -31q27 0 60.5 8.5t70.5 25.5q29 -30 37 -79q-78 -57 -188 -57q-108 0 -158 68q-53 -68 -152 -68q-55 0 -97.5 18.5t-71 52.5t-43.5 82.5t-15 108.5q0 121 58 191.5t170 70.5q98 0 154 -71q53 71 150 71q49 0 88 -15.5t65 -44t40 -67.5
t14 -85q0 -25 -3 -47.5t-8 -44.5zM260 412q-89 0 -89 -164q0 -163 89 -163q90 0 90 163q0 81 -22.5 123t-67.5 41zM573 416q-77 0 -83 -118h163v11q0 107 -80 107z" />
    <glyph glyph-name="Racute" unicode="&#x154;" horiz-adv-x="608" 
d="M553 477q0 -33 -9.5 -62.5t-26.5 -53t-39.5 -41t-49.5 -26.5q26 -9 43.5 -31t30.5 -57l37 -101q9 -25 20 -43t27 -30q-13 -18 -37.5 -29t-55.5 -11q-30 0 -48 18t-33 61l-42 119q-13 35 -33 53.5t-60 18.5h-61v-262q-14 -2 -31 -3.5t-37 -1.5q-37 0 -65 5v678l7 6
q81 2 137.5 3t90.5 1q108 0 171.5 -54t63.5 -157zM216 586v-220q52 3 92 3q107 0 107 108t-107 108h-53.5t-38.5 1zM188 792l213 129q18 -14 35 -43.5t19 -57.5l-229 -92q-14 8 -25 27t-13 37z" />
    <glyph glyph-name="racute" unicode="&#x155;" horiz-adv-x="383" 
d="M40 436q4 18 16.5 38t25.5 30q81 -10 111 -90q38 89 127 89q33 0 60 -7q0 -70 -32 -122q-15 5 -46 7q-58 0 -94 -62v-319q-30 -5 -64.5 -5t-66.5 5v333q0 71 -37 103zM121 591l150 164q26 -8 50.5 -31t33.5 -49l-179 -136q-40 13 -55 52z" />
    <glyph glyph-name="Rcommaaccent" unicode="&#x156;" horiz-adv-x="608" 
d="M553 477q0 -33 -9.5 -62.5t-26.5 -53t-39.5 -41t-49.5 -26.5q26 -9 43.5 -31t30.5 -57l37 -101q9 -25 20 -43t27 -30q-13 -18 -37.5 -29t-55.5 -11q-30 0 -48 18t-33 61l-42 119q-13 35 -33 53.5t-60 18.5h-61v-262q-14 -2 -31 -3.5t-37 -1.5q-37 0 -65 5v678l7 6
q81 2 137.5 3t90.5 1q108 0 171.5 -54t63.5 -157zM216 586v-220q52 3 92 3q107 0 107 108t-107 108h-53.5t-38.5 1zM384 -59q11 -24 11 -56q0 -55 -37 -98t-102 -65q-32 11 -41 54q63 39 63 98q0 30 -13 53q23 16 57 20t62 -6z" />
    <glyph glyph-name="rcommaaccent" unicode="&#x157;" horiz-adv-x="383" 
d="M40 436q4 18 16.5 38t25.5 30q81 -10 111 -90q38 89 127 89q33 0 60 -7q0 -70 -32 -122q-15 5 -46 7q-58 0 -94 -62v-319q-30 -5 -64.5 -5t-66.5 5v333q0 71 -37 103zM207 -59q11 -24 11 -56q0 -55 -37 -98t-102 -65q-32 11 -41 54q63 39 63 98q0 30 -13 53q23 16 57 20
t62 -6z" />
    <glyph glyph-name="Rcaron" unicode="&#x158;" horiz-adv-x="608" 
d="M553 477q0 -33 -9.5 -62.5t-26.5 -53t-39.5 -41t-49.5 -26.5q26 -9 43.5 -31t30.5 -57l37 -101q9 -25 20 -43t27 -30q-13 -18 -37.5 -29t-55.5 -11q-30 0 -48 18t-33 61l-42 119q-13 35 -33 53.5t-60 18.5h-61v-262q-14 -2 -31 -3.5t-37 -1.5q-37 0 -65 5v678l7 6
q81 2 137.5 3t90.5 1q108 0 171.5 -54t63.5 -157zM216 586v-220q52 3 92 3q107 0 107 108t-107 108h-53.5t-38.5 1zM183 906l115 -74l118 84q16 -6 33.5 -21.5t22.5 -32.5l-118 -118q-50 -13 -112 -1l-113 108q6 19 22.5 34.5t31.5 20.5z" />
    <glyph glyph-name="rcaron" unicode="&#x159;" horiz-adv-x="383" 
d="M40 436q4 18 16.5 38t25.5 30q81 -10 111 -90q38 89 127 89q33 0 60 -7q0 -70 -32 -122q-15 5 -46 7q-58 0 -94 -62v-319q-30 -5 -64.5 -5t-66.5 5v333q0 71 -37 103zM110 740l92 -89l100 96q40 -15 59 -52l-107 -136q-23 -7 -54 -6.5t-54 6.5l-95 126q8 19 25.5 34
t33.5 21z" />
    <glyph glyph-name="Sacute" unicode="&#x15a;" horiz-adv-x="556" 
d="M22 60q3 28 18.5 56.5t35.5 45.5q103 -66 202 -66q48 0 76 22.5t28 56.5q-2 58 -77 91l-118 50q-70 29 -105 74.5t-35 104.5q0 45 17.5 82t50 63.5t77 41.5t98.5 15q110 0 216 -55q-3 -61 -47 -102q-101 48 -176 48q-48 0 -73.5 -22t-25.5 -54q0 -46 71 -76l118 -50
q72 -30 111 -79t39 -113q0 -45 -16 -83.5t-48.5 -66t-81 -43t-114.5 -15.5q-128 0 -241 74zM173 792l213 129q18 -14 35 -43.5t19 -57.5l-229 -92q-14 8 -25 27t-13 37z" />
    <glyph glyph-name="sacute" unicode="&#x15b;" horiz-adv-x="440" 
d="M25 35q1 22 12.5 48.5t26.5 41.5q79 -43 139 -43q33 0 53.5 13t20.5 35q0 35 -54 56l-56 21q-126 46 -126 147q0 36 13.5 64.5t38 49t58.5 31.5t76 11q19 0 42.5 -3t47.5 -8.5t46 -12.5t38 -15q0 -25 -10 -52t-27 -40q-79 35 -137 35q-26 0 -41 -12.5t-15 -32.5
q0 -31 50 -49l61 -22q66 -23 98 -63t32 -93q0 -71 -53 -113.5t-152 -42.5q-97 0 -182 49zM137 591l150 164q26 -8 50.5 -31t33.5 -49l-179 -136q-40 13 -55 52z" />
    <glyph glyph-name="Scaron" unicode="&#x160;" horiz-adv-x="556" 
d="M22 60q3 28 18.5 56.5t35.5 45.5q103 -66 202 -66q48 0 76 22.5t28 56.5q-2 58 -77 91l-118 50q-70 29 -105 74.5t-35 104.5q0 45 17.5 82t50 63.5t77 41.5t98.5 15q110 0 216 -55q-3 -61 -47 -102q-101 48 -176 48q-48 0 -73.5 -22t-25.5 -54q0 -46 71 -76l118 -50
q72 -30 111 -79t39 -113q0 -45 -16 -83.5t-48.5 -66t-81 -43t-114.5 -15.5q-128 0 -241 74zM166 906l115 -74l118 84q16 -6 33.5 -21.5t22.5 -32.5l-118 -118q-50 -13 -112 -1l-113 108q6 19 22.5 34.5t31.5 20.5z" />
    <glyph glyph-name="scaron" unicode="&#x161;" horiz-adv-x="440" 
d="M25 35q1 22 12.5 48.5t26.5 41.5q79 -43 139 -43q33 0 53.5 13t20.5 35q0 35 -54 56l-56 21q-126 46 -126 147q0 36 13.5 64.5t38 49t58.5 31.5t76 11q19 0 42.5 -3t47.5 -8.5t46 -12.5t38 -15q0 -25 -10 -52t-27 -40q-79 35 -137 35q-26 0 -41 -12.5t-15 -32.5
q0 -31 50 -49l61 -22q66 -23 98 -63t32 -93q0 -71 -53 -113.5t-152 -42.5q-97 0 -182 49zM126 740l92 -89l100 96q40 -15 59 -52l-107 -136q-23 -7 -54 -6.5t-54 6.5l-95 126q8 19 25.5 34t33.5 21z" />
    <glyph glyph-name="Tcaron" unicode="&#x164;" horiz-adv-x="501" 
d="M318 572l1 -74v-498q-29 -5 -67.5 -5t-67.5 5v498l1 74l-61 -1h-111q-5 25 -5 56t5 56h478q7 -25 7 -54.5t-17 -43.5t-55 -14h-47l-61 1v0zM132 906l115 -74l118 84q16 -6 33.5 -21.5t22.5 -32.5l-118 -118q-50 -13 -112 -1l-113 108q6 19 22.5 34.5t31.5 20.5z" />
    <glyph glyph-name="tcaron" unicode="&#x165;" horiz-adv-x="389" 
d="M337 497q6 -24 6 -47t-6 -47l-121 2v-263q0 -46 43 -46h62q10 -30 10 -57t-3 -35q-61 -9 -120 -9q-120 0 -120 122v287l-76 -1q-5 20 -5 47t5 47l76 -1v72q0 44 16 62t55 18h50l7 -6v-147zM275 565l12 225q24 7 59 2t54 -19l-50 -213q-17 -6 -39.5 -4.5t-35.5 9.5z" />
    <glyph glyph-name="Uring" unicode="&#x16e;" horiz-adv-x="671" 
d="M597 683v-437q0 -125 -68.5 -192.5t-193.5 -67.5q-124 0 -192.5 67.5t-68.5 192.5v436l6 7h50q40 0 59 -20.5t19 -65.5v-358q0 -152 127 -152q128 0 128 152v438q28 5 67 5t67 -5zM239 698q-36 34 -36 86q0 26 10 48t27 38.5t41 25.5t53 9t53 -9.5t41.5 -26t27 -38.5
t9.5 -47t-9.5 -47t-27 -38t-41.5 -25.5t-53 -9.5q-58 0 -95 34zM334 837q-25 0 -37 -16.5t-12 -36.5t12.5 -36t36.5 -16q25 0 37 16t12 36t-12 36.5t-37 16.5z" />
    <glyph glyph-name="uring" unicode="&#x16f;" horiz-adv-x="548" 
d="M65 162v219q0 62 -21 95q33 28 76.5 28t59.5 -20.5t16 -61.5v-233q0 -43 11 -61.5t41 -18.5q53 0 99 46v341q22 5 64.5 5t66.5 -5v-355q0 -59 28 -83q-5 -18 -17.5 -37t-26.5 -29q-73 7 -101 71q-77 -72 -159 -72q-67 0 -102 47t-35 124zM171 576q-36 34 -36 86
q0 26 10 48t27 38.5t41 25.5t53 9t53 -9.5t41.5 -26t27 -38.5t9.5 -47t-9.5 -47t-27 -38.5t-41.5 -26t-53 -9.5q-57 0 -95 35zM230 700q-8 -8 -11 -17.5t-3 -20.5q0 -22 13.5 -37t36.5 -15q22 0 36 15t14 37t-14 37.5t-36 15.5q-10 0 -19.5 -3.5t-16.5 -11.5z" />
    <glyph glyph-name="Ydieresis" unicode="&#x178;" horiz-adv-x="523" 
d="M316 485l79 198q23 5 58 5t63 -9l5 -8l-192 -458v-213q-26 -5 -67 -5t-67 5v217l-192 450q42 24 76 24t50 -13t28 -43l63 -154q26 -68 43 -134h6q16 58 47 138zM430 842q11 -17 11 -47q0 -20 -4.5 -33t-14.5 -17t-21.5 -6.5t-24.5 -2.5q-12 0 -24.5 2.5t-23.5 7t-16 17
t-5 33.5q0 20 5 33.5t16 17.5t23.5 6.5t24.5 2.5q29 0 54 -14zM98 842q22 14 53 14q12 0 24 -2.5t23.5 -6t16 -16.5t4.5 -35t-4 -34.5t-16 -17t-24 -6.5t-24 -2q-28 1 -46 9.5t-18 49.5q0 30 11 47z" />
    <glyph glyph-name="Zacute" unicode="&#x179;" horiz-adv-x="571" 
d="M59 135l237 341q36 51 80 101l-3 3q-64 -8 -155 -8h-152q-5 20 -5 48t9 63h428q19 -65 19 -87.5t-16 -45.5l-236 -340q-39 -54 -79 -100l3 -3q86 6 136 6h79q70 0 115 21q10 -28 10 -62.5t-24 -53t-66 -18.5h-381q-16 67 -16 88t17 47zM173 792l213 129q18 -14 35 -43.5
t19 -57.5l-229 -92q-14 8 -25 27t-13 37z" />
    <glyph glyph-name="zacute" unicode="&#x17a;" horiz-adv-x="448" 
d="M49 116l140 189q15 20 80 96l-3 4q-58 -7 -129 -7h-90q-5 22 -5 45.5t8 52.5h342q17 -51 17 -73.5t-14 -40.5l-141 -191q-44 -57 -77 -93l3 -5q39 5 86 5h41q67 0 100 16q13 -32 13 -55q0 -59 -75 -59h-299q-16 44 -16 67t19 49zM140 591l150 164q26 -8 50.5 -31
t33.5 -49l-179 -136q-40 13 -55 52z" />
    <glyph glyph-name="Zdotaccent" unicode="&#x17b;" horiz-adv-x="571" 
d="M59 135l237 341q36 51 80 101l-3 3q-64 -8 -155 -8h-152q-5 20 -5 48t9 63h428q19 -65 19 -87.5t-16 -45.5l-236 -340q-39 -54 -79 -100l3 -3q86 6 136 6h79q70 0 115 21q10 -28 10 -62.5t-24 -53t-66 -18.5h-381q-16 67 -16 88t17 47zM221 757q-5 11 -7.5 24t-2.5 27
t2.5 27.5t7.5 24.5q26 14 66 14q41 0 64 -14q10 -23 10 -52q0 -28 -10 -51q-23 -14 -67 -14q-43 0 -63 14z" />
    <glyph glyph-name="zdotaccent" unicode="&#x17c;" horiz-adv-x="448" 
d="M49 116l140 189q15 20 80 96l-3 4q-58 -7 -129 -7h-90q-5 22 -5 45.5t8 52.5h342q17 -51 17 -73.5t-14 -40.5l-141 -191q-44 -57 -77 -93l3 -5q39 5 86 5h41q67 0 100 16q13 -32 13 -55q0 -59 -75 -59h-299q-16 44 -16 67t19 49zM160 689q24 13 66.5 13t63.5 -13
q10 -23 10 -52t-10 -52q-23 -14 -65 -14t-65 14q-10 23 -10 52t10 52z" />
    <glyph glyph-name="Zcaron" horiz-adv-x="571" 
d="M59 135l237 341q36 51 80 101l-3 3q-64 -8 -155 -8h-152q-5 20 -5 48t9 63h428q19 -65 19 -87.5t-16 -45.5l-236 -340q-39 -54 -79 -100l3 -3q86 6 136 6h79q70 0 115 21q10 -28 10 -62.5t-24 -53t-66 -18.5h-381q-16 67 -16 88t17 47zM167 906l115 -74l118 84
q16 -6 33.5 -21.5t22.5 -32.5l-118 -118q-50 -13 -112 -1l-113 108q6 19 22.5 34.5t31.5 20.5z" />
    <glyph glyph-name="Zcaron" unicode="&#x17d;" horiz-adv-x="571" 
d="M59 135l237 341q36 51 80 101l-3 3q-64 -8 -155 -8h-152q-5 20 -5 48t9 63h428q19 -65 19 -87.5t-16 -45.5l-236 -340q-39 -54 -79 -100l3 -3q86 6 136 6h79q70 0 115 21q10 -28 10 -62.5t-24 -53t-66 -18.5h-381q-16 67 -16 88t17 47zM167 906l115 -74l118 84
q16 -6 33.5 -21.5t22.5 -32.5l-118 -118q-50 -13 -112 -1l-113 108q6 19 22.5 34.5t31.5 20.5z" />
    <glyph glyph-name="zcaron" horiz-adv-x="448" 
d="M49 116l140 189q15 20 80 96l-3 4q-58 -7 -129 -7h-90q-5 22 -5 45.5t8 52.5h342q17 -51 17 -73.5t-14 -40.5l-141 -191q-44 -57 -77 -93l3 -5q39 5 86 5h41q67 0 100 16q13 -32 13 -55q0 -59 -75 -59h-299q-16 44 -16 67t19 49zM130 740l92 -89l100 96q40 -15 59 -52
l-107 -136q-23 -7 -54 -6.5t-54 6.5l-95 126q8 19 25.5 34t33.5 21z" />
    <glyph glyph-name="zcaron" unicode="&#x17e;" horiz-adv-x="448" 
d="M49 116l140 189q15 20 80 96l-3 4q-58 -7 -129 -7h-90q-5 22 -5 45.5t8 52.5h342q17 -51 17 -73.5t-14 -40.5l-141 -191q-44 -57 -77 -93l3 -5q39 5 86 5h41q67 0 100 16q13 -32 13 -55q0 -59 -75 -59h-299q-16 44 -16 67t19 49zM130 740l92 -89l100 96q40 -15 59 -52
l-107 -136q-23 -7 -54 -6.5t-54 6.5l-95 126q8 19 25.5 34t33.5 21z" />
    <glyph glyph-name="uni0237" unicode="&#x237;" horiz-adv-x="292" 
d="M224 395v-371q0 -58 -5.5 -93.5t-23 -67.5t-51.5 -51.5t-89 -31.5q-33 29 -36 80q44 20 60.5 45.5t16.5 77.5v365q0 55 -46 55h-22q-6 23 -6 46t6 46q52 5 85 5h18q43 0 68 -28t25 -77z" />
    <glyph glyph-name="circumflex" unicode="&#x2c6;" 
d="M295 549l-93 89l-98 -95q-38 14 -59 51l105 135q48 16 109 0l94 -125q-8 -19 -25 -34.5t-33 -20.5z" />
    <glyph glyph-name="caron" unicode="&#x2c7;" 
d="M104 740l92 -89l100 96q40 -15 59 -52l-107 -136q-23 -7 -54 -6.5t-54 6.5l-95 126q8 19 25.5 34t33.5 21z" />
    <glyph glyph-name="dotaccent" unicode="&#x2d9;" 
d="M134 689q24 13 66.5 13t63.5 -13q10 -23 10 -52t-10 -52q-23 -14 -65 -14t-65 14q-10 23 -10 52t10 52z" />
    <glyph glyph-name="ring" unicode="&#x2da;" 
d="M104 576q-36 34 -36 86q0 26 10 48t27 38.5t41 25.5t53 9t53 -9.5t41.5 -26t27 -38.5t9.5 -47t-9.5 -47t-27 -38.5t-41.5 -26t-53 -9.5q-57 0 -95 35zM163 700q-8 -8 -11 -17.5t-3 -20.5q0 -22 13.5 -37t36.5 -15q22 0 36 15t14 37t-14 37.5t-36 15.5q-10 0 -19.5 -3.5
t-16.5 -11.5z" />
    <glyph glyph-name="tilde" unicode="&#x2dc;" 
d="M205 572l-49 24q-7 4 -14 6.5t-15 2.5q-9 0 -19 -5t-20 -19l-10 -14q-19 1 -37 12t-25 28l9 20q14 40 45.5 60t65.5 20q32 0 57 -16l49 -25q8 -4 15 -6.5t15 -2.5q17 -1 38 25l10 13q18 0 36.5 -11.5t25.5 -28.5l-9 -19q-39 -80 -108 -80q-32 0 -60 16z" />
    <glyph glyph-name="mu" unicode="&#x3bc;" horiz-adv-x="553" 
d="M482 496v-354q0 -62 28 -84q-5 -17 -17.5 -36.5t-26.5 -29.5q-65 6 -97 62q-41 -63 -115 -63q-36 0 -65 19v-140q0 -44 -12 -66.5t-54 -22.5t-76 27q21 31 21 96v592q25 5 63 5q21 0 37.5 -1.5t28.5 -3.5v-316q2 -37 20.5 -57.5t52.5 -20.5q47 0 81 46v348q25 5 65 5
q21 0 37.5 -1.5t28.5 -3.5z" />
    <glyph glyph-name="germandbls.cap" unicode="&#x1e9e;" horiz-adv-x="642" 
d="M100 0v375l-86 -1q-3 12 -4 25t-1 26t1 25.5t4 25.5l86 -1v28q0 95 62.5 145.5t167.5 50.5q52 0 95.5 -14.5t74 -41.5t47.5 -64.5t17 -83.5q0 -36 -16 -77q-33 -10 -52.5 -27t-19.5 -37q-1 -23 28 -49l38 -36q72 -69 72 -136q0 -33 -14.5 -60t-39.5 -46.5t-59 -30
t-74 -10.5q-78 0 -136 29q0 11 3.5 24t8.5 25.5t11.5 23.5t14.5 18q22 -11 42 -16t37 -5q29 0 48.5 13.5t19.5 35.5q0 13 -8 28.5t-27 32.5l-41 37q-63 57 -63 111q0 35 24.5 68t66.5 50q3 15 3 31q0 46 -26 76.5t-75 30.5q-97 0 -97 -110v-489q-17 -3 -33.5 -4t-33.5 -1
t-33 1t-33 4z" />
    <glyph glyph-name="endash" unicode="&#x2013;" horiz-adv-x="544" 
d="M480 214h-416q-6 22 -6 52t6 50h416q6 -20 6 -50t-6 -52z" />
    <glyph glyph-name="emdash" unicode="&#x2014;" horiz-adv-x="807" 
d="M731 214h-655q-5 22 -5 51.5t5 50.5h655q6 -20 6 -50t-6 -52z" />
    <glyph glyph-name="quoteleft" unicode="&#x2018;" horiz-adv-x="249" 
d="M52 511q-12 33 -12 73q0 69 39 121t114 75q15 -8 23 -22.5t8 -30.5v-8q-75 -32 -78 -85q22 -5 33.5 -9.5t15 -12.5t5 -19t1.5 -27q0 -25 -5.5 -40.5t-16 -20.5t-26 -7.5t-34.5 -2.5q-44 0 -67 16z" />
    <glyph glyph-name="quoteright" unicode="&#x2019;" horiz-adv-x="249" 
d="M196 764q12 -32 12 -73q0 -69 -39 -121.5t-114 -75.5q-14 8 -23 23t-8 39q30 11 54 33.5t25 51.5q-21 3 -32.5 7.5t-15.5 13.5t-5.5 20.5t-1.5 27.5q0 37 11 54q29 16 71 16q41 0 66 -16z" />
    <glyph glyph-name="quotesinglbase" unicode="&#x201a;" horiz-adv-x="249" 
d="M197 114q12 -29 12 -73q0 -69 -39 -121t-114 -76q-14 8 -23 23t-8 39q30 11 53.5 33.5t24.5 51.5q-21 3 -32 8t-14 12.5t-5.5 20t-2.5 28.5q0 37 11 54q29 16 71 16q41 0 66 -16z" />
    <glyph glyph-name="quotedblleft" unicode="&#x201c;" horiz-adv-x="464" 
d="M50 511q-12 33 -12 73q0 69 39 121t114 75q15 -8 23 -22.5t8 -38.5q-75 -32 -78 -85q22 -5 33.5 -9.5t14.5 -12.5t5 -19t2 -27q0 -25 -4.5 -40t-16 -20.5t-27 -8t-34.5 -2.5q-44 0 -67 16zM265 511q-12 33 -12 73q0 69 39 121t114 75q15 -8 23 -22.5t8 -38.5
q-75 -32 -78 -85q22 -5 33.5 -9.5t15 -12.5t5 -19t1.5 -27q0 -25 -4.5 -40t-16 -20.5t-27 -8t-34.5 -2.5q-44 0 -67 16z" />
    <glyph glyph-name="quotedblright" unicode="&#x201d;" horiz-adv-x="464" 
d="M199 764q12 -32 12 -73q0 -69 -39 -121.5t-114 -75.5q-14 8 -23 23t-8 39q30 11 54 33.5t25 51.5q-21 3 -32.5 7.5t-15.5 13.5t-5.5 20.5t-1.5 27.5q0 37 11 54q29 16 71 16q41 0 66 -16zM415 764q12 -32 12 -73q0 -69 -39 -121.5t-114 -75.5q-14 8 -23 23t-8 39
q30 11 54 33.5t25 51.5q-21 3 -32.5 7.5t-15.5 13.5t-5.5 20.5t-1.5 27.5q0 37 11 54q29 16 71 16q41 0 66 -16z" />
    <glyph glyph-name="quotedblbase" unicode="&#x201e;" horiz-adv-x="465" 
d="M197 114q12 -29 12 -73q0 -69 -39 -121t-114 -76q-14 8 -23 23t-8 39q30 11 53.5 33.5t24.5 51.5q-21 3 -32.5 8t-14.5 13.5t-5 20t-2 27.5q0 37 11 54q29 16 71 16q41 0 66 -16zM412 114q12 -29 12 -73q0 -69 -39 -121t-114 -76q-14 8 -23 23t-8 39q30 11 53.5 33.5
t24.5 51.5q-21 3 -32 7.5t-14.5 13.5t-5.5 20.5t-2 27.5q0 37 11 54q29 16 71 16q41 0 66 -16z" />
    <glyph glyph-name="bullet" unicode="&#x2022;" horiz-adv-x="455" 
d="M118 177q-16 35 -16 93t16 93q24 14 53 20.5t58 6.5q61 0 111 -27q15 -35 15 -93q0 -59 -15 -93q-41 -27 -110 -27t-112 27z" />
    <glyph glyph-name="guilsinglleft" unicode="&#x2039;" horiz-adv-x="341" 
d="M303 413l-131 -156l135 -159q-7 -21 -29 -41t-44 -26l-200 185q-7 16 -7 39t7 39l198 187q21 -6 42.5 -26.5t28.5 -41.5z" />
    <glyph glyph-name="guilsinglright" unicode="&#x203a;" horiz-adv-x="341" 
d="M38 99l130 156l-135 159q7 21 29 41t44 26l201 -186q6 -15 6 -38t-6 -39l-198 -187q-22 6 -43 26.5t-28 41.5z" />
    <glyph glyph-name="fraction" unicode="&#x2044;" horiz-adv-x="257" 
d="M-124 0l378 683q26 6 67.5 6t58.5 -6l-377 -683q-27 -6 -68 -6t-59 6z" />
    <glyph glyph-name="uni2074" unicode="&#x2074;" horiz-adv-x="420" 
d="M353 402l-31 1v-74q-20 -5 -51 -5t-54 5v29l1 45l-49 -2h-111q-24 39 -24 60t15 54l115 255q25 3 56.5 -3.5t47.5 -19.5l-63 -138q-35 -82 -64 -118l2 -2q40 4 74 4v42q0 37 20 58t55 21h27l4 -4v-54l-1 -63h56q4 -16 4 -40t-8 -51h-21z" />
    <glyph glyph-name="Euro" unicode="&#x20ac;" horiz-adv-x="563" 
d="M493 498q-74 57 -147 57q-91 0 -116 -112h183q5 -21 5 -42.5t-5 -41.5h-193v-72h193q5 -21 5 -42.5t-5 -41.5h-182q24 -110 115 -110q72 0 147 56q47 -27 56 -79q-99 -84 -221 -84q-190 0 -229 217h-81q-5 20 -5 41.5t5 42.5h72q-1 12 -1 36t1 36h-72q-5 20 -5 41.5
t5 42.5h81q39 219 229 219q121 0 221 -85q-4 -22 -19.5 -44.5t-36.5 -34.5z" />
    <glyph glyph-name="nonbreakingspace" horiz-adv-x="220" 
 />
    <glyph glyph-name="commaaccent" 
d="M263 -59q11 -24 11 -56q0 -55 -37 -98t-102 -65q-32 11 -41 54q63 39 63 98q0 30 -13 53q23 16 57 20t62 -6z" />
    <glyph glyph-name="grave.cap" 
d="M110 921l213 -129q-8 -46 -38 -64l-229 92q2 28 19 57.5t35 43.5z" />
    <glyph glyph-name="acute.cap" 
d="M86 792l213 129q18 -14 35 -43.5t19 -57.5l-229 -92q-14 8 -25 27t-13 37z" />
    <glyph glyph-name="circumflex.cap" 
d="M313 736l-115 74l-118 -84q-16 6 -33 22t-22 34l117 117q57 12 111 0l113 -108q-6 -19 -21.5 -34t-31.5 -21z" />
    <glyph glyph-name="dieresis.cap" 
d="M365 842q11 -17 11 -47q0 -20 -4.5 -33t-14.5 -17t-21.5 -6.5t-24.5 -2.5q-12 0 -24.5 2.5t-23.5 7t-16 17t-5 33.5q0 20 5 33.5t16 17.5t23.5 6.5t24.5 2.5q29 0 54 -14zM33 842q22 14 53 14q12 0 24 -2.5t23.5 -6t16 -16.5t4.5 -35t-4 -34.5t-16 -17t-24 -6.5t-24 -2
q-28 1 -46 9.5t-18 49.5q0 30 11 47z" />
    <glyph glyph-name="caron.cap" 
d="M80 906l115 -74l118 84q16 -6 33.5 -21.5t22.5 -32.5l-118 -118q-50 -13 -112 -1l-113 108q6 19 22.5 34.5t31.5 20.5z" />
    <glyph glyph-name="ring.cap" 
d="M104 698q-36 34 -36 86q0 26 10 48t27 38.5t41 25.5t53 9t53 -9.5t41.5 -26t27 -38.5t9.5 -47t-9.5 -47t-27 -38t-41.5 -25.5t-53 -9.5q-58 0 -95 34zM199 837q-25 0 -37 -16.5t-12 -36.5t12.5 -36t36.5 -16q25 0 37 16t12 36t-12 36.5t-37 16.5z" />
    <glyph glyph-name="tilde.cap" 
d="M205 758l-51 24q-7 4 -15 6.5t-16 2.5q-21 1 -39 -24l-10 -14q-20 1 -39.5 12t-26.5 28l9 19q37 81 114 81q15 1 30 -4t32 -13l51 -24q8 -4 15.5 -6.5t15.5 -2.5q21 -1 39 24l10 13q20 0 39.5 -11t26.5 -28l-9 -19q-38 -81 -114 -81q-31 0 -62 17z" />
    <glyph glyph-name="dotaccent.cap" 
d="M134 757q-5 11 -7.5 24t-2.5 27t2.5 27.5t7.5 24.5q26 14 66 14q41 0 64 -14q10 -23 10 -52q0 -28 -10 -51q-23 -14 -67 -14q-43 0 -63 14z" />
    <glyph glyph-name="caron.alt" horiz-adv-x="445" 
d="M195 565l12 225q24 7 59 2t54 -19l-50 -213q-17 -6 -39.5 -4.5t-35.5 9.5z" />
    <glyph glyph-name="commaaccent.cap" 
d="M263 -59q11 -24 11 -56q0 -55 -37 -98t-102 -65q-32 11 -41 54q63 39 63 98q0 30 -13 53q23 16 57 20t62 -6z" />
    <glyph glyph-name="a.smcp" horiz-adv-x="560" 
d="M380 109l-41 -1h-130l-41 1l-37 -109q-24 -6 -60.5 -6t-57.5 10l-4 6l196 538q40 6 76 6t78 -6l193 -542q-31 -14 -67 -14t-55 11.5t-30 45.5zM203 213l37 1h73q26 -1 32 -1l-21 64q-15 49 -46 167h-5q-30 -111 -45 -158z" />
    <glyph glyph-name="b.smcp" horiz-adv-x="557" 
d="M294 -4l-211 3l-5 5v539l5 6q57 2 106 3t92 1q208 0 208 -145q0 -37 -21.5 -68.5t-56.5 -44.5q46 -13 76.5 -51t30.5 -86q0 -162 -224 -162zM285 241h-78v-152q34 1 66 1t56 4.5t39.5 21t15.5 48.5q0 31 -23 54t-76 23zM207 461v-127h68q84 0 84 63q0 26 -12 39.5
t-32.5 18.5t-48 4.5t-59.5 1.5z" />
    <glyph glyph-name="c.smcp" horiz-adv-x="542" 
d="M390 316q0 142 -101 142q-117 0 -117 -187q0 -91 34.5 -133t94.5 -42q32 0 69 14t76 44q10 -6 20 -15.5t18 -21t14.5 -24t9.5 -23.5q-95 -84 -229 -84q-66 0 -112 23.5t-75 63t-42.5 91t-13.5 108.5q0 72 19.5 126.5t54 91t81 54.5t100.5 18t96.5 -14t70 -39.5
t42.5 -57.5t15 -68q0 -71 -79 -71q-7 0 -18.5 1t-27.5 3z" />
    <glyph glyph-name="d.smcp" horiz-adv-x="596" 
d="M83 -1l-5 6v538l5 6q78 2 129 3t75 1q80 0 132.5 -22t83.5 -60t43 -89t12 -109q0 -55 -10.5 -105t-39 -87.5t-78.5 -61t-129 -23.5q-101 0 -218 3zM209 98l84 1q66 1 98 43.5t32 131.5q0 176 -130 176h-48t-36 1v-353z" />
    <glyph glyph-name="e.smcp" horiz-adv-x="520" 
d="M209 158l-1 -54q40 2 65 2h207q0 -29 -2 -44q-12 -63 -80 -63h-244q-35 0 -55.5 20.5t-20.5 55.5v468l5 5h380q4 -19 4 -50t-11 -57h-248l1 -52v-61q23 1 59 1h142q7 -17 7 -51t-7 -53h-201v-67z" />
    <glyph glyph-name="f.smcp" horiz-adv-x="478" 
d="M209 439l1 -60v-59h192q6 -18 6 -52t-6 -53h-192v-215q-28 -5 -66.5 -5t-65.5 5v544l5 4h372q6 -22 6 -49q0 -60 -67 -60h-185z" />
    <glyph glyph-name="g.smcp" horiz-adv-x="577" 
d="M297 308q23 1 57.5 1.5t81.5 0.5q51 0 70.5 -18t19.5 -55v-218q-99 -33 -231 -33t-195.5 78t-63.5 215q0 70 21.5 123t58.5 88.5t87 53.5t107 18q117 0 209 -51q-2 -14 -7 -28.5t-12.5 -28t-16.5 -24.5t-18 -17q-72 42 -145 42q-72 0 -110 -45.5t-38 -138.5
q0 -185 150 -185q40 0 80 8v58q1 27 2 50h-54q-60 0 -60 53q0 32 7 53z" />
    <glyph glyph-name="h.smcp" horiz-adv-x="624" 
d="M415 338l-1 59v151q25 6 66 6t66 -6v-548q-28 -5 -66 -5t-66 5v172l1 60l-47 -1h-112l-47 1l1 -60v-172q-26 -5 -66.5 -5t-65.5 5v548q24 6 65.5 6t66.5 -6v-151l-1 -59l47 1h112z" />
    <glyph glyph-name="i.smcp" horiz-adv-x="294" 
d="M80 0v548q26 5 66 5t67 -5v-548q-27 -5 -67 -5t-66 5z" />
    <glyph glyph-name="j.smcp" horiz-adv-x="415" 
d="M47 121q43 -28 87 -28q45 0 64 26.5t19 80.5v348q28 5 68 5q41 0 64 -5v-344q0 -109 -45 -163t-145 -54q-96 0 -157 41q9 57 45 93z" />
    <glyph glyph-name="k.smcp" horiz-adv-x="562" 
d="M544 33q-14 -18 -38 -29.5t-52.5 -10.5t-45 16t-30.5 48l-49 113q-14 33 -29.5 45.5t-43.5 13t-46 -0.5v-228q-26 -5 -66.5 -5t-65.5 5v548q25 5 65.5 5t66.5 -5v-213l23 1q18 0 24 4.5t16 20.5l89 147q14 25 29 35.5t47 10.5t76 -6l8 -8l-114 -184q-24 -39 -49 -58
q37 -8 57.5 -29.5t37.5 -60.5l42 -98q24 -56 48 -77z" />
    <glyph glyph-name="l.smcp" horiz-adv-x="475" 
d="M298 109h154q-2 -39 -4 -47q-11 -64 -85 -64h-210q-35 0 -56 20.5t-21 56.5v472l6 6h51q39 0 57.5 -19.5t18.5 -63.5v-366q53 5 89 5z" />
    <glyph glyph-name="m.smcp" horiz-adv-x="747" 
d="M58 2l55 546q31 7 86.5 7t81.5 -7l63 -234q17 -64 27 -121h6q7 60 26 121l62 234q35 7 84.5 7t83.5 -7l55 -546q-24 -7 -64 -7t-64 5l-17 220q-1 17 -5 197h-5l-92 -334q-32 -5 -69 -5t-67 5l-91 334h-6q0 -138 -5 -197l-17 -220q-22 -5 -62.5 -5t-65.5 7z" />
    <glyph glyph-name="n.smcp" horiz-adv-x="631" 
d="M548 554l5 -6v-546q-29 -7 -81 -7t-72 5l-147 279q-8 14 -30 62t-27 58l-3 -1q8 -142 8 -208v-190q-27 -5 -62 -5t-61 5v546q37 7 83.5 7t67.5 -5l146 -279q7 -12 59 -128l6 2q-12 180 -12 212v125q0 43 17 58.5t58 15.5h45z" />
    <glyph glyph-name="o.smcp" horiz-adv-x="598" 
d="M299 463q-127 0 -127 -189t127 -189t127 189t-127 189zM134 513q65 49 166 49q69 0 119 -22.5t82 -62t47 -92t15 -111.5q0 -66 -17 -119.5t-50.5 -91t-83 -57.5t-113.5 -20q-65 0 -114 20t-82 57.5t-50 91t-17 119.5q0 162 98 239z" />
    <glyph glyph-name="p.smcp" horiz-adv-x="523" 
d="M83 549l196 4q99 0 158.5 -46.5t59.5 -139.5q0 -92 -59.5 -139.5t-158.5 -47.5h-69v-180q-28 -5 -67 -5q-20 0 -36 1.5t-29 3.5v543zM210 454v-175h60q51 0 71 26t20 61q0 34 -20 60.5t-63 26.5h-38t-30 1z" />
    <glyph glyph-name="q.smcp" horiz-adv-x="600" 
d="M134 513q65 49 166 49q69 0 119 -22.5t82 -62t47 -92t15 -111.5q0 -85 -29.5 -148t-89.5 -96q58 -45 130 -48q-2 -45 -28.5 -69.5t-65.5 -24.5q-22 0 -44.5 8.5t-42.5 28.5l-74 62l-14 -1q-68 0 -118 20t-84 57.5t-50.5 91t-16.5 119.5q0 162 98 239zM299 463
q-127 0 -127 -189t127 -189t127 189t-127 189z" />
    <glyph glyph-name="r.smcp" horiz-adv-x="559" 
d="M507 384q0 -53 -34.5 -92.5t-80.5 -49.5q48 -18 72 -72l31 -72q20 -44 44 -65q-32 -41 -90 -41q-29 0 -46.5 14.5t-31.5 46.5l-46 106q-12 26 -28.5 35.5t-47.5 9.5h-40v-204q-27 -5 -66.5 -5t-64.5 5v543l5 6q152 4 209 4q97 0 156 -41t59 -128zM286 455l-77 1v-152
q58 2 72 2q90 0 90 76q0 32 -20 52.5t-65 20.5z" />
    <glyph glyph-name="s.smcp" horiz-adv-x="502" 
d="M22 43q0 13 4 27.5t10.5 28t15.5 25t19 17.5q93 -50 180 -50q35 0 58.5 15.5t23.5 41.5q0 39 -60 60l-96 34q-139 49 -139 152q0 77 59 122.5t163 45.5q98 0 196 -42q0 -66 -45 -100q-45 20 -85.5 28.5t-78.5 8.5q-32 0 -51 -14.5t-19 -34.5t13.5 -29.5t44.5 -21.5
l94 -33q73 -26 109.5 -68t36.5 -99q0 -39 -16 -70.5t-45.5 -54t-70.5 -34.5t-90 -12q-137 0 -231 57z" />
    <glyph glyph-name="t.smcp" horiz-adv-x="450" 
d="M294 441l1 -60v-381q-27 -5 -64 -5t-69 5v381l1 60l-55 -1h-99q-4 27 -4 55t4 53h435q7 -21 7 -49q0 -59 -67 -59h-37l-52 1h-1z" />
    <glyph glyph-name="u.smcp" horiz-adv-x="609" 
d="M541 548v-347q0 -103 -61 -159t-176 -56q-114 0 -175 56t-61 159v347l6 5h48q79 0 79 -84v-268q0 -110 103 -110q104 0 104 110v347q14 2 30.5 3.5t36.5 1.5q38 0 66 -5z" />
    <glyph glyph-name="v.smcp" horiz-adv-x="530" 
d="M276 103l124 445q24 6 55.5 6t62.5 -9l5 -7l-170 -538q-33 -5 -86.5 -5t-75 12t-31.5 46l-151 486q38 16 72 16t51 -14t28 -48l67 -216q21 -71 40 -166q2 -8 9 -8z" />
    <glyph glyph-name="w.smcp" horiz-adv-x="800" 
d="M127 52l-105 490q31 13 69 13t52 -15.5t22 -57.5l43 -225q10 -48 23 -140q2 -11 9 -11l81 435q31 5 82.5 5t81.5 -5l75 -424q1 -8 3 -9.5t6 -1.5q10 76 24 153l58 289q25 5 60 5t62 -9l6 -8l-121 -536q-36 -7 -111 -7q-33 0 -53.5 12t-25.5 47l-34 177q-9 53 -29 193h-6
q-24 -152 -32 -193l-46 -229q-41 -6 -93.5 -6t-72.5 11.5t-28 46.5z" />
    <glyph glyph-name="x.smcp" horiz-adv-x="538" 
d="M381 548v1q27 5 60 5t65 -9l2 -7l-163 -244l186 -273q-39 -28 -89 -28t-86 52l-96 142l-122 -187q-27 -5 -61.5 -5t-64.5 9l-4 7l183 277l-162 240q43 28 91 28q26 0 44.5 -12t37.5 -41l75 -111z" />
    <glyph glyph-name="y.smcp" horiz-adv-x="460" 
d="M274 396l61 152q23 6 51 6t65 -8l6 -7l-162 -376v-163q-26 -5 -65 -5t-65 5v167l-161 370q41 19 77 19q52 0 71 -50l50 -121q22 -56 30 -105h6q34 111 36 116z" />
    <glyph glyph-name="z.smcp" horiz-adv-x="513" 
d="M53 125l201 245q28 33 76 77l-3 3q-55 -7 -142 -7h-126q-5 19 -5 43.5t10 61.5h388q18 -66 18 -86t-15 -39l-201 -243q-32 -39 -71 -75l2 -4q38 3 126 6l53 1q74 2 106 18q8 -29 8 -59t-25 -49t-64 -19h-338q-14 68 -14 78q0 29 16 48z" />
    <glyph glyph-name="ampersand.smcp" horiz-adv-x="578" 
d="M299 340h164q54 0 92 18q17 -23 17 -58q0 -63 -83 -63h-15q1 -9 1 -23v-34v-79q0 -8 1.5 -33t5.5 -69q-21 -8 -61 -8q-20 0 -34.5 1.5t-24.5 3.5l-8 37q-58 -46 -141 -46q-42 0 -74.5 12t-54 33t-33 48t-11.5 57q0 61 33.5 101.5t82.5 53.5q-40 13 -64 46t-24 76
q0 33 14 60.5t40.5 47t63.5 30t82 10.5q90 0 177 -26v-12q0 -49 -33 -85q-41 12 -72 17t-54 5q-44 0 -62 -16t-18 -42q0 -63 93 -63zM349 116v121h-62q-54 0 -82.5 -21.5t-28.5 -58.5t21 -54.5t55 -17.5q56 0 97 31z" />
    <glyph glyph-name="zero.smcp" horiz-adv-x="482" 
d="M99 509q53 53 142 53q57 0 96 -19t65 -56t34.5 -90t8.5 -122q0 -81 -12 -139t-50 -96q-56 -54 -142 -54q-88 0 -142 54q-38 38 -50 96t-12 139t12 139.5t50 94.5zM295 438q-19 28 -54 28q-36 0 -55 -28t-19 -164q0 -135 19 -163t55 -28q16 0 29.5 5t23.5 22t15.5 55.5
t5.5 108.5q0 135 -20 164z" />
    <glyph glyph-name="one.smcp" horiz-adv-x="482" 
d="M204 102l-1 61v143q0 13 7 83q-44 -49 -118 -79q-43 21 -52 75q124 72 169 163q26 5 60.5 5t60.5 -5v-446l61 2h45q6 -22 6 -52t-6 -52h-360q-6 24 -6 53t6 51h71z" />
    <glyph glyph-name="two.smcp" horiz-adv-x="482" 
d="M437 108q0 -56 -17 -82.5t-66 -26.5h-267q-15 13 -30 35.5t-15 40.5q0 65 105 155l93 80q48 40 48 82q0 26 -17 44t-45 18q-58 0 -86 -72q-26 1 -52.5 13.5t-38.5 30.5q18 60 67.5 98t125.5 38q37 0 69.5 -13t56.5 -36t37.5 -54.5t13.5 -68.5q0 -44 -26 -85.5t-77 -83.5
l-70 -57q-57 -47 -67 -66q42 5 73.5 7.5t54.5 2.5h130z" />
    <glyph glyph-name="three.smcp" horiz-adv-x="482" 
d="M390 421l-72 -68q-7 -7 -14.5 -13t-17.5 -11q33 -3 61.5 -16t48.5 -33.5t31.5 -48.5t11.5 -61q0 -43 -17.5 -77t-46.5 -58t-67.5 -36.5t-81.5 -12.5q-111 0 -187 59q5 23 19.5 47.5t34.5 38.5q60 -42 110 -42q54 0 78 24t24 63q0 19 -7 33t-19 23t-27 13t-31 4
q-25 0 -48 -10q-9 4 -17 12t-15.5 18t-12.5 21t-8 20l91 86l61 49l-3 5q-37 -8 -98 -8h-107q-9 24 -9 51q0 14 2.5 27.5t8.5 27.5h322q26 -45 26 -76q0 -30 -24 -51z" />
    <glyph glyph-name="four.smcp" horiz-adv-x="482" 
d="M376 99l1 -60v-39q-27 -5 -60 -5t-60 5v39l1 60l-63 -2h-139q-28 49 -28 73t17 60l154 325q31 4 65 -4t52 -25l-82 -171q-38 -80 -83 -156l3 -4q47 5 103 7v59q0 42 23.5 69t61.5 27h31l5 -6v-73l-2 -75v-1l41 1h35q3 -15 3 -45.5t-9 -58.5h-70z" />
    <glyph glyph-name="five.smcp" horiz-adv-x="482" 
d="M42 44q2 9 7 21t12 24t15.5 23t17.5 17q53 -40 117 -40q42 0 68 24t26 66q0 40 -24.5 64.5t-62.5 24.5q-20 0 -42 -8t-45 -25q-17 4 -35.5 17.5t-29.5 28.5l15 261l8 6h321q8 -26 8 -53q0 -52 -56 -52h-164l-5 -90q32 8 60 8q39 0 72.5 -13t58 -36.5t38.5 -55.5t14 -70
q0 -48 -17 -85.5t-47 -63t-71 -38.5t-89 -13q-99 0 -170 58z" />
    <glyph glyph-name="six.smcp" horiz-adv-x="482" 
d="M109 36q-70 70 -70 245q0 134 63 207.5t178 73.5q85 0 140 -28q-6 -53 -42 -85q-48 16 -90 16q-110 0 -117 -139q52 33 123 33q72 0 111.5 -46.5t39.5 -134.5q0 -43 -15 -78t-41 -60.5t-63 -39.5t-80 -14q-87 0 -137 50zM171 220q0 -140 78 -140q33 0 51 23t18 66
q0 92 -67 92q-40 0 -80 -27v-14z" />
    <glyph glyph-name="seven.smcp" horiz-adv-x="482" 
d="M56 548h368q25 -46 25 -72t-17 -49l-39 -52q-65 -86 -97 -166t-38 -189l-1 -20q-26 -7 -62 -7t-69 7l1 20q16 205 148 366l14 16q11 13 41 43l-3 4q-50 -8 -131 -8h-145q-7 21 -7 48.5t12 58.5z" />
    <glyph glyph-name="eight.smcp" horiz-adv-x="482" 
d="M33 132q0 48 29 85.5t72 58.5q-85 49 -85 130q0 33 14.5 61.5t40 49.5t61 33t77.5 12q87 0 138.5 -40.5t51.5 -106.5q0 -78 -76 -118q93 -56 93 -140q0 -43 -16 -75t-44.5 -53.5t-67.5 -32t-85 -10.5t-83.5 10.5t-64 29.5t-41 46t-14.5 60zM236 233l-10 3
q-67 -34 -67 -94q0 -30 22 -49t59 -19t58.5 19.5t21.5 49.5q0 58 -84 90zM253 341l13 -5q44 30 44 76q0 27 -20 44t-49 17q-31 0 -49.5 -17.5t-18.5 -40.5q0 -22 19 -41t61 -33z" />
    <glyph glyph-name="nine.smcp" horiz-adv-x="482" 
d="M376 512q70 -69 70 -245q0 -134 -63 -207.5t-178 -73.5q-79 0 -140 29q8 57 42 85q48 -17 91 -17q108 0 116 140q-49 -34 -122 -34q-72 0 -112 46.5t-40 134.5q0 43 14.5 78.5t41 61t63 39t80.5 13.5q89 0 137 -50zM315 329q0 140 -78 140q-34 0 -52 -23.5t-18 -66.5
q0 -92 67 -92q39 0 81 27v15z" />
    <glyph glyph-name="currency.smcp" horiz-adv-x="475" 
d="M69 172q-12 20 -17.5 44.5t-5.5 49.5t5.5 49t17.5 45l-57 64q21 39 68 66l66 -60q41 19 90 19q47 0 89 -18l70 62q37 -22 68 -67l-59 -67q23 -40 23 -92q0 -25 -6 -49.5t-18 -46.5l57 -64q-24 -41 -68 -68l-68 62q-19 -9 -41.5 -13t-45.5 -4t-45.5 4t-42.5 13l-69 -60
q-19 10 -35.5 27t-32.5 40zM236 360q-34 0 -51.5 -25.5t-17.5 -67.5q0 -40 17.5 -66.5t51.5 -26.5q35 0 53 26t18 66q0 42 -18.5 68t-52.5 26z" />
    <glyph glyph-name="dollar.smcp" horiz-adv-x="450" 
d="M23 78q2 25 15.5 53t31.5 40q85 -45 153 -45q67 0 67 38q0 28 -45 45l-85 31q-117 42 -117 134q0 57 36 94.5t99 49.5v65q17 5 46 5q30 0 47 -5v-62q74 -9 139 -39q-3 -61 -45 -94q-74 36 -134 36q-59 0 -59 -39q0 -14 11 -22.5t35 -16.5l78 -28q127 -46 127 -146
q0 -61 -41.5 -98.5t-113.5 -46.5v-60q-15 -4 -47 -4q-31 0 -46 4v60q-92 11 -152 51z" />
    <glyph glyph-name="cent.smcp" horiz-adv-x="420" 
d="M172 -30v78q-52 12 -85.5 48.5t-45.5 80.5t-12 96q0 98 41 155t105 72v82q18 3 45 3t48 -3v-80q58 -11 91.5 -48t33.5 -90q0 -70 -68 -70q-27 0 -46 6q0 55 -13 81.5t-47 26.5q-65 0 -65 -139q0 -126 87 -126q47 0 101 34q37 -25 49 -70q-49 -47 -125 -60v-77
q-14 -4 -46 -4t-48 4z" />
    <glyph glyph-name="sterling.smcp" horiz-adv-x="474" 
d="M212 310l152 1q3 -9 5 -20.5t2 -23.5t-2 -23.5t-5 -20.5h-79.5t-56.5 1q-8 -69 -50 -123l3 -2q48 6 147 6h118q0 -55 -18.5 -80.5t-70.5 -25.5h-293q-16 61 -16 81q0 19 17 45l11 18q30 49 35 80h-60q-4 9 -5.5 20.5t-1.5 23.5t1.5 23.5t5.5 20.5h41q-26 63 -26 96
q0 31 13 59.5t36.5 49.5t57 33.5t75.5 12.5q116 0 186 -67q-7 -25 -24.5 -47t-40.5 -32q-56 42 -109 42q-30 0 -50 -17t-20 -46t22 -85z" />
    <glyph glyph-name="Euro.smcp" horiz-adv-x="498" 
d="M434 421q-62 39 -122 39q-75 0 -98 -82h148q5 -20 5 -37.5t-5 -37.5h-159v-57h159q5 -20 5 -38t-5 -38h-148q23 -82 98 -82q62 0 122 39q21 -11 36 -32t18 -42q-88 -67 -192 -67q-169 0 -207 184h-74q-5 16 -5 38t5 38h65q-1 9 -1 28v29h-64q-5 16 -5 37.5t5 37.5h73
q36 184 209 184q105 0 191 -65q-3 -22 -18.5 -43.5t-35.5 -32.5z" />
    <glyph glyph-name="yen.smcp" horiz-adv-x="479" 
d="M435 128h-135v-128q-26 -5 -63 -5t-62 5v128h-134q-7 22 -7 38t7 38h128l-28 59h-100q-7 24 -7 39.5t7 37.5h65l-90 194q43 23 83 23t57 -41l52 -124q14 -32 32 -95h5q11 42 33 94l68 158q23 6 52.5 6t62.5 -8l5 -7l-96 -200h65q5 -21 5 -38.5t-5 -38.5h-101l-28 -59h129
q5 -20 5 -38t-5 -38z" />
    <glyph glyph-name="ae.smcp" horiz-adv-x="793" 
d="M480 158l-1 -55v-1q30 3 64 3h210q0 -28 -2 -43q-12 -63 -81 -63h-239q-36 0 -55.5 20t-19.5 56v39q-13 -1 -36 -1h-85l-50 1l-57 -114q-20 -5 -58.5 -5t-59.5 9l-5 7l275 527q24 10 81 10h375q4 -19 4 -49.5t-11 -56.5h-250l1 -54v-61q23 1 59 1h144q7 -19 7 -51t-7 -51
h-203v-68zM318 213l38 -1v241h-5q-9 -20 -77 -162l-40 -79l38 1h46z" />
    <glyph glyph-name="agrave.smcp" horiz-adv-x="560" 
d="M380 109l-41 -1h-130l-41 1l-37 -109q-24 -6 -60.5 -6t-57.5 10l-4 6l196 538q40 6 76 6t78 -6l193 -542q-31 -14 -67 -14t-55 11.5t-30 45.5zM203 213l37 1h73q26 -1 32 -1l-21 64q-15 49 -46 167h-5q-30 -111 -45 -158zM229 807l149 -164q-7 -18 -22.5 -32.5
t-32.5 -19.5l-178 136q8 25 33 48t51 32z" />
    <glyph glyph-name="aacute.smcp" horiz-adv-x="560" 
d="M380 109l-41 -1h-130l-41 1l-37 -109q-24 -6 -60.5 -6t-57.5 10l-4 6l196 538q40 6 76 6t78 -6l193 -542q-31 -14 -67 -14t-55 11.5t-30 45.5zM203 213l37 1h73q26 -1 32 -1l-21 64q-15 49 -46 167h-5q-30 -111 -45 -158zM199 643l150 164q26 -8 50.5 -31t33.5 -49
l-179 -136q-40 13 -55 52z" />
    <glyph glyph-name="acircumflex.smcp" horiz-adv-x="560" 
d="M380 109l-41 -1h-130l-41 1l-37 -109q-24 -6 -60.5 -6t-57.5 10l-4 6l196 538q40 6 76 6t78 -6l193 -542q-31 -14 -67 -14t-55 11.5t-30 45.5zM203 213l37 1h73q26 -1 32 -1l-21 64q-15 49 -46 167h-5q-30 -111 -45 -158zM380 601l-93 89l-98 -95q-38 14 -59 51l105 135
q48 16 109 0l94 -125q-8 -19 -25 -34.5t-33 -20.5z" />
    <glyph glyph-name="atilde.smcp" horiz-adv-x="560" 
d="M380 109l-41 -1h-130l-41 1l-37 -109q-24 -6 -60.5 -6t-57.5 10l-4 6l196 538q40 6 76 6t78 -6l193 -542q-31 -14 -67 -14t-55 11.5t-30 45.5zM203 213l37 1h73q26 -1 32 -1l-21 64q-15 49 -46 167h-5q-30 -111 -45 -158zM289 624l-49 24q-7 4 -14 6.5t-15 2.5
q-9 0 -19 -5t-20 -19l-10 -14q-19 1 -37 12t-25 28l9 20q14 40 45.5 60t65.5 20q32 0 57 -16l49 -25q8 -4 15 -6.5t15 -2.5q17 -1 38 25l10 13q18 0 36.5 -11.5t25.5 -28.5l-9 -19q-39 -80 -108 -80q-32 0 -60 16z" />
    <glyph glyph-name="adieresis.smcp" horiz-adv-x="560" 
d="M380 109l-41 -1h-130l-41 1l-37 -109q-24 -6 -60.5 -6t-57.5 10l-4 6l196 538q40 6 76 6t78 -6l193 -542q-31 -14 -67 -14t-55 11.5t-30 45.5zM203 213l37 1h73q26 -1 32 -1l-21 64q-15 49 -46 167h-5q-30 -111 -45 -158zM324 715q23 14 57 14q32 0 57 -14q8 -22 8 -46
q0 -19 -3.5 -32t-12.5 -17.5t-21.5 -6.5t-27.5 -2q-16 0 -31 3t-26 11q-5 10 -6.5 21.5t-1.5 23.5q0 26 8 45zM130 715q23 14 57 14q32 0 57 -14q8 -22 8 -46q0 -19 -3.5 -32t-12.5 -17.5t-21.5 -6.5t-27.5 -2q-16 0 -31 3t-26 11q-5 10 -6.5 21.5t-1.5 23.5q0 26 8 45z" />
    <glyph glyph-name="aring.smcp" horiz-adv-x="560" 
d="M380 109l-41 -1h-130l-41 1l-37 -109q-24 -6 -60.5 -6t-57.5 10l-4 6l196 538q40 6 76 6t78 -6l193 -542q-31 -14 -67 -14t-55 11.5t-30 45.5zM203 213l37 1h73q26 -1 32 -1l-21 64q-15 49 -46 167h-5q-30 -111 -45 -158zM189 628q-36 34 -36 86q0 26 10 48t27 38.5
t41 25.5t53 9t53 -9.5t41.5 -26t27 -38.5t9.5 -47t-9.5 -47t-27 -38.5t-41.5 -26t-53 -9.5q-57 0 -95 35zM248 752q-8 -8 -11 -17.5t-3 -20.5q0 -22 13.5 -37t36.5 -15q22 0 36 15t14 37t-14 37.5t-36 15.5q-10 0 -19.5 -3.5t-16.5 -11.5z" />
    <glyph glyph-name="ccedilla.smcp" horiz-adv-x="542" 
d="M230 -76q4 16 8.5 31.5t11.5 31.5q-58 5 -99 30.5t-66.5 64t-37 88t-11.5 102.5q0 72 19.5 126.5t54 91t81 54.5t100.5 18t96.5 -14t70 -39.5t42.5 -57.5t15 -68q0 -71 -79 -71q-7 0 -18.5 1t-27.5 3q0 142 -101 142q-117 0 -117 -187q0 -91 34.5 -133t94.5 -42
q32 0 69 14t76 44q10 -6 20 -15.5t18 -21t14.5 -24t9.5 -23.5q-76 -67 -185 -81q-4 -8 -6.5 -13.5t-3.5 -9.5q45 -3 71 -27t26 -66q0 -21 -10 -39t-27.5 -32t-40.5 -22t-49 -8q-54 0 -85 22q1 37 23 60q22 -13 48 -13q40 0 40 33q0 19 -11.5 26t-25.5 7q-12 0 -22 -3
q-15 8 -20 20z" />
    <glyph glyph-name="egrave.smcp" horiz-adv-x="520" 
d="M209 158l-1 -54q40 2 65 2h207q0 -29 -2 -44q-12 -63 -80 -63h-244q-35 0 -55.5 20.5t-20.5 55.5v468l5 5h380q4 -19 4 -50t-11 -57h-248l1 -52v-61q23 1 59 1h142q7 -17 7 -51t-7 -53h-201v-67zM220 807l149 -164q-7 -18 -22.5 -32.5t-32.5 -19.5l-178 136q8 25 33 48
t51 32z" />
    <glyph glyph-name="eacute.smcp" horiz-adv-x="520" 
d="M209 158l-1 -54q40 2 65 2h207q0 -29 -2 -44q-12 -63 -80 -63h-244q-35 0 -55.5 20.5t-20.5 55.5v468l5 5h380q4 -19 4 -50t-11 -57h-248l1 -52v-61q23 1 59 1h142q7 -17 7 -51t-7 -53h-201v-67zM189 643l150 164q26 -8 50.5 -31t33.5 -49l-179 -136q-40 13 -55 52z" />
    <glyph glyph-name="ecircumflex.smcp" horiz-adv-x="520" 
d="M209 158l-1 -54q40 2 65 2h207q0 -29 -2 -44q-12 -63 -80 -63h-244q-35 0 -55.5 20.5t-20.5 55.5v468l5 5h380q4 -19 4 -50t-11 -57h-248l1 -52v-61q23 1 59 1h142q7 -17 7 -51t-7 -53h-201v-67zM371 601l-93 89l-98 -95q-38 14 -59 51l105 135q48 16 109 0l94 -125
q-8 -19 -25 -34.5t-33 -20.5z" />
    <glyph glyph-name="edieresis.smcp" horiz-adv-x="520" 
d="M209 158l-1 -54q40 2 65 2h207q0 -29 -2 -44q-12 -63 -80 -63h-244q-35 0 -55.5 20.5t-20.5 55.5v468l5 5h380q4 -19 4 -50t-11 -57h-248l1 -52v-61q23 1 59 1h142q7 -17 7 -51t-7 -53h-201v-67zM315 715q23 14 57 14q32 0 57 -14q8 -22 8 -46q0 -19 -3.5 -32
t-12.5 -17.5t-21.5 -6.5t-27.5 -2q-16 0 -31 3t-26 11q-5 10 -6.5 21.5t-1.5 23.5q0 26 8 45zM121 715q23 14 57 14q32 0 57 -14q8 -22 8 -46q0 -19 -3.5 -32t-12.5 -17.5t-21.5 -6.5t-27.5 -2q-16 0 -31 3t-26 11q-5 10 -6.5 21.5t-1.5 23.5q0 26 8 45z" />
    <glyph glyph-name="hbar.smcp" horiz-adv-x="632" 
d="M213 228l1 -59v-169q-26 -5 -66.5 -5t-65.5 5v399h-60q-6 19 -6 40t6 42h60v67q24 6 65.5 6t66.5 -6v-67h204v67q25 6 66 6t66 -6v-67h61q5 -23 5 -41.5t-5 -40.5h-61v-399q-28 -5 -66 -5t-66 5v169l1 59l-47 -1h-112zM213 333l47 1h112l47 -1l-1 62v4h-204v-4z" />
    <glyph glyph-name="igrave.smcp" horiz-adv-x="294" 
d="M80 0v548q26 5 66 5t67 -5v-548q-27 -5 -67 -5t-66 5zM93 807l149 -164q-7 -18 -22.5 -32.5t-32.5 -19.5l-178 136q8 25 33 48t51 32z" />
    <glyph glyph-name="iacute.smcp" horiz-adv-x="294" 
d="M80 0v548q26 5 66 5t67 -5v-548q-27 -5 -67 -5t-66 5zM64 643l150 164q26 -8 50.5 -31t33.5 -49l-179 -136q-40 13 -55 52z" />
    <glyph glyph-name="icircumflex.smcp" horiz-adv-x="294" 
d="M80 0v548q26 5 66 5t67 -5v-548q-27 -5 -67 -5t-66 5zM245 601l-93 89l-98 -95q-38 14 -59 51l105 135q48 16 109 0l94 -125q-8 -19 -25 -34.5t-33 -20.5z" />
    <glyph glyph-name="itilde.smcp" horiz-adv-x="294" 
d="M80 0v548q26 5 66 5t67 -5v-548q-27 -5 -67 -5t-66 5zM155 624l-49 24q-7 4 -14 6.5t-15 2.5q-9 0 -19 -5t-20 -19l-10 -14q-19 1 -37 12t-25 28l9 20q14 40 45.5 60t65.5 20q32 0 57 -16l49 -25q8 -4 15 -6.5t15 -2.5q17 -1 38 25l10 13q18 0 36.5 -11.5t25.5 -28.5
l-9 -19q-39 -80 -108 -80q-32 0 -60 16z" />
    <glyph glyph-name="idieresis.smcp" horiz-adv-x="294" 
d="M80 0v548q26 5 66 5t67 -5v-548q-27 -5 -67 -5t-66 5zM189 715q23 14 57 14q32 0 57 -14q8 -22 8 -46q0 -19 -3.5 -32t-12.5 -17.5t-21.5 -6.5t-27.5 -2q-16 0 -31 3t-26 11q-5 10 -6.5 21.5t-1.5 23.5q0 26 8 45zM-5 715q23 14 57 14q32 0 57 -14q8 -22 8 -46
q0 -19 -3.5 -32t-12.5 -17.5t-21.5 -6.5t-27.5 -2q-16 0 -31 3t-26 11q-5 10 -6.5 21.5t-1.5 23.5q0 26 8 45z" />
    <glyph glyph-name="ij.smcp" horiz-adv-x="709" 
d="M80 0v548q26 5 66 5t67 -5v-548q-27 -5 -67 -5t-66 5zM341 121q43 -28 87 -28q45 0 64 26.5t19 80.5v348q28 5 68 5q41 0 64 -5v-344q0 -109 -45 -163t-145 -54q-96 0 -157 41q9 57 45 93z" />
    <glyph glyph-name="jcircumflex.smcp" horiz-adv-x="415" 
d="M47 121q43 -28 87 -28q45 0 64 26.5t19 80.5v348q28 5 68 5q41 0 64 -5v-344q0 -109 -45 -163t-145 -54q-96 0 -157 41q9 57 45 93zM379 601l-93 89l-98 -95q-38 14 -59 51l105 135q48 16 109 0l94 -125q-8 -19 -25 -34.5t-33 -20.5z" />
    <glyph glyph-name="kcommaaccent.smcp" horiz-adv-x="555" 
d="M544 33q-14 -18 -38 -29.5t-52.5 -10.5t-45 16t-30.5 48l-49 113q-14 33 -29.5 45.5t-43.5 13t-46 -0.5v-228q-26 -5 -66.5 -5t-65.5 5v548q25 5 65.5 5t66.5 -5v-213l23 1q18 0 24 4.5t16 20.5l89 147q14 25 29 35.5t47 10.5t76 -6l8 -8l-114 -184q-24 -39 -49 -58
q37 -8 57.5 -29.5t37.5 -60.5l42 -98q24 -56 48 -77zM352 -59q11 -24 11 -56q0 -55 -37 -98t-102 -65q-32 11 -41 54q63 39 63 98q0 30 -13 53q23 16 57 20t62 -6z" />
    <glyph glyph-name="kgreenlandic.smcp" horiz-adv-x="562" 
d="M544 33q-14 -18 -38 -29.5t-52.5 -10.5t-45 16t-30.5 48l-49 113q-14 33 -29.5 45.5t-43.5 13t-46 -0.5v-228q-26 -5 -66.5 -5t-65.5 5v548q25 5 65.5 5t66.5 -5v-213l23 1q18 0 24 4.5t16 20.5l89 147q14 25 29 35.5t47 10.5t76 -6l8 -8l-114 -184q-24 -39 -49 -58
q37 -8 57.5 -29.5t37.5 -60.5l42 -98q24 -56 48 -77z" />
    <glyph glyph-name="ldot.smcp" horiz-adv-x="482" 
d="M298 109h154q-2 -39 -4 -47q-11 -64 -85 -64h-210q-35 0 -56 20.5t-21 56.5v472l6 6h51q39 0 57.5 -19.5t18.5 -63.5v-366q53 5 89 5zM315 372q27 15 61 15q32 0 59 -15q5 -11 7 -25t2 -28q0 -32 -9 -53q-20 -16 -59 -16q-17 0 -29 3t-20 6.5t-12 6.5q-3 5 -5 17t-3 36
q0 32 8 53z" />
    <glyph glyph-name="lslash.smcp" horiz-adv-x="491" 
d="M225 470v-121l134 44l10 -4q14 -39 2 -96l-146 -45v-144q53 5 88 5h154q0 -31 -3 -47q-11 -64 -85 -64h-210q-35 0 -56 20.5t-21 56.5v135l-58 -18l-9 5q-14 39 -2 96l69 20v234l6 6h51q39 0 57.5 -19.5t18.5 -63.5z" />
    <glyph glyph-name="nacute.smcp" horiz-adv-x="631" 
d="M548 554l5 -6v-546q-29 -7 -81 -7t-72 5l-147 279q-8 14 -30 62t-27 58l-3 -1q8 -142 8 -208v-190q-27 -5 -62 -5t-61 5v546q37 7 83.5 7t67.5 -5l146 -279q7 -12 59 -128l6 2q-12 180 -12 212v125q0 43 17 58.5t58 15.5h45zM232 643l150 164q26 -8 50.5 -31t33.5 -49
l-179 -136q-40 13 -55 52z" />
    <glyph glyph-name="ntilde.smcp" horiz-adv-x="631" 
d="M548 554l5 -6v-546q-29 -7 -81 -7t-72 5l-147 279q-8 14 -30 62t-27 58l-3 -1q8 -142 8 -208v-190q-27 -5 -62 -5t-61 5v546q37 7 83.5 7t67.5 -5l146 -279q7 -12 59 -128l6 2q-12 180 -12 212v125q0 43 17 58.5t58 15.5h45zM324 624l-49 24q-7 4 -14 6.5t-15 2.5
q-9 0 -19 -5t-20 -19l-10 -14q-19 1 -37 12t-25 28l9 20q14 40 45.5 60t65.5 20q32 0 57 -16l49 -25q8 -4 15 -6.5t15 -2.5q17 -1 38 25l10 13q18 0 36.5 -11.5t25.5 -28.5l-9 -19q-39 -80 -108 -80q-32 0 -60 16z" />
    <glyph glyph-name="oe.smcp" horiz-adv-x="829" 
d="M515 162l-1 -58q21 1 37.5 1.5t28.5 0.5h211q0 -55 -17.5 -81t-65.5 -26h-275q-44 -7 -76.5 -10t-54.5 -3q-128 0 -197 75.5t-69 212.5q0 138 69.5 213t196.5 75q27 0 61.5 -3.5t76.5 -10.5h333q2 -8 3 -19t1 -24q0 -16 -2.5 -32.5t-7.5 -31.5h-253l1 -113q11 1 26.5 1
h34.5h145q3 -11 5 -24.5t2 -27.5t-2 -27.5t-5 -24.5h-206v-63zM302 88q41 0 86 13v347q-51 14 -86 14q-128 0 -128 -187t128 -187z" />
    <glyph glyph-name="ograve.smcp" horiz-adv-x="598" 
d="M299 463q-127 0 -127 -189t127 -189t127 189t-127 189zM134 513q65 49 166 49q69 0 119 -22.5t82 -62t47 -92t15 -111.5q0 -66 -17 -119.5t-50.5 -91t-83 -57.5t-113.5 -20q-65 0 -114 20t-82 57.5t-50 91t-17 119.5q0 162 98 239zM243 807l149 -164q-7 -18 -22.5 -32.5
t-32.5 -19.5l-178 136q8 25 33 48t51 32z" />
    <glyph glyph-name="oacute.smcp" horiz-adv-x="598" 
d="M299 463q-127 0 -127 -189t127 -189t127 189t-127 189zM134 513q65 49 166 49q69 0 119 -22.5t82 -62t47 -92t15 -111.5q0 -66 -17 -119.5t-50.5 -91t-83 -57.5t-113.5 -20q-65 0 -114 20t-82 57.5t-50 91t-17 119.5q0 162 98 239zM214 643l150 164q26 -8 50.5 -31
t33.5 -49l-179 -136q-40 13 -55 52z" />
    <glyph glyph-name="ocircumflex.smcp" horiz-adv-x="598" 
d="M299 463q-127 0 -127 -189t127 -189t127 189t-127 189zM134 513q65 49 166 49q69 0 119 -22.5t82 -62t47 -92t15 -111.5q0 -66 -17 -119.5t-50.5 -91t-83 -57.5t-113.5 -20q-65 0 -114 20t-82 57.5t-50 91t-17 119.5q0 162 98 239zM395 601l-93 89l-98 -95q-38 14 -59 51
l105 135q48 16 109 0l94 -125q-8 -19 -25 -34.5t-33 -20.5z" />
    <glyph glyph-name="otilde.smcp" horiz-adv-x="598" 
d="M299 463q-127 0 -127 -189t127 -189t127 189t-127 189zM134 513q65 49 166 49q69 0 119 -22.5t82 -62t47 -92t15 -111.5q0 -66 -17 -119.5t-50.5 -91t-83 -57.5t-113.5 -20q-65 0 -114 20t-82 57.5t-50 91t-17 119.5q0 162 98 239zM306 624l-49 24q-7 4 -14 6.5t-15 2.5
q-9 0 -19 -5t-20 -19l-10 -14q-19 1 -37 12t-25 28l9 20q14 40 45.5 60t65.5 20q32 0 57 -16l49 -25q8 -4 15 -6.5t15 -2.5q17 -1 38 25l10 13q18 0 36.5 -11.5t25.5 -28.5l-9 -19q-39 -80 -108 -80q-32 0 -60 16z" />
    <glyph glyph-name="odieresis.smcp" horiz-adv-x="598" 
d="M299 463q-127 0 -127 -189t127 -189t127 189t-127 189zM134 513q65 49 166 49q69 0 119 -22.5t82 -62t47 -92t15 -111.5q0 -66 -17 -119.5t-50.5 -91t-83 -57.5t-113.5 -20q-65 0 -114 20t-82 57.5t-50 91t-17 119.5q0 162 98 239zM340 715q23 14 57 14q32 0 57 -14
q8 -22 8 -46q0 -19 -3.5 -32t-12.5 -17.5t-21.5 -6.5t-27.5 -2q-16 0 -31 3t-26 11q-5 10 -6.5 21.5t-1.5 23.5q0 26 8 45zM146 715q23 14 57 14q32 0 57 -14q8 -22 8 -46q0 -19 -3.5 -32t-12.5 -17.5t-21.5 -6.5t-27.5 -2q-16 0 -31 3t-26 11q-5 10 -6.5 21.5t-1.5 23.5
q0 26 8 45z" />
    <glyph glyph-name="oslash.smcp" horiz-adv-x="598" 
d="M36 274q0 66 17.5 119t50.5 90.5t79.5 58t104.5 20.5q87 0 140 -27l44 61q47 -17 70 -50l-46 -63q67 -77 67 -209q0 -66 -17.5 -119t-50 -90.5t-79.5 -58t-106 -20.5q-91 0 -144 28l-43 -58q-47 14 -70 49l46 64q-63 78 -63 205zM433 274q0 61 -13 101l-194 -276
q31 -21 73 -21q134 0 134 196zM176 178l193 273q-29 20 -69 20t-66 -16.5t-41.5 -44t-21.5 -63.5t-6 -74q0 -23 2.5 -47.5t8.5 -47.5z" />
    <glyph glyph-name="racute.smcp" horiz-adv-x="559" 
d="M507 384q0 -53 -34.5 -92.5t-80.5 -49.5q48 -18 72 -72l31 -72q20 -44 44 -65q-32 -41 -90 -41q-29 0 -46.5 14.5t-31.5 46.5l-46 106q-12 26 -28.5 35.5t-47.5 9.5h-40v-204q-27 -5 -66.5 -5t-64.5 5v543l5 6q152 4 209 4q97 0 156 -41t59 -128zM286 455l-77 1v-152
q58 2 72 2q90 0 90 76q0 32 -20 52.5t-65 20.5zM189 643l150 164q26 -8 50.5 -31t33.5 -49l-179 -136q-40 13 -55 52z" />
    <glyph glyph-name="rcaron.smcp" horiz-adv-x="559" 
d="M507 384q0 -53 -34.5 -92.5t-80.5 -49.5q48 -18 72 -72l31 -72q20 -44 44 -65q-32 -41 -90 -41q-29 0 -46.5 14.5t-31.5 46.5l-46 106q-12 26 -28.5 35.5t-47.5 9.5h-40v-204q-27 -5 -66.5 -5t-64.5 5v543l5 6q152 4 209 4q97 0 156 -41t59 -128zM286 455l-77 1v-152
q58 2 72 2q90 0 90 76q0 32 -20 52.5t-65 20.5zM179 792l92 -89l100 96q40 -15 59 -52l-107 -136q-23 -7 -54 -6.5t-54 6.5l-95 126q8 19 25.5 34t33.5 21z" />
    <glyph glyph-name="rcommaaccent.smcp" horiz-adv-x="559" 
d="M507 384q0 -53 -34.5 -92.5t-80.5 -49.5q48 -18 72 -72l31 -72q20 -44 44 -65q-32 -41 -90 -41q-29 0 -46.5 14.5t-31.5 46.5l-46 106q-12 26 -28.5 35.5t-47.5 9.5h-40v-204q-27 -5 -66.5 -5t-64.5 5v543l5 6q152 4 209 4q97 0 156 -41t59 -128zM286 455l-77 1v-152
q58 2 72 2q90 0 90 76q0 32 -20 52.5t-65 20.5zM349 -59q11 -24 11 -56q0 -55 -37 -98t-102 -65q-32 11 -41 54q63 39 63 98q0 30 -13 53q23 16 57 20t62 -6z" />
    <glyph glyph-name="germandbls.smcp" horiz-adv-x="1004" 
d="M22 43q0 13 4 27.5t10.5 28t15.5 25t19 17.5q93 -50 180 -50q35 0 58.5 15.5t23.5 41.5q0 39 -60 60l-96 34q-139 49 -139 152q0 77 59 122.5t163 45.5q98 0 196 -42q0 -66 -45 -100q-45 20 -85.5 28.5t-78.5 8.5q-32 0 -51 -14.5t-19 -34.5t13.5 -29.5t44.5 -21.5
l94 -33q73 -26 109.5 -68t36.5 -99q0 -39 -16 -70.5t-45.5 -54t-70.5 -34.5t-90 -12q-137 0 -231 57zM524 43q0 13 4 27.5t10.5 28t15.5 25t19 17.5q93 -50 180 -50q35 0 58.5 15.5t23.5 41.5q0 39 -60 60l-96 34q-139 49 -139 152q0 77 59 122.5t163 45.5q98 0 196 -42
q0 -66 -45 -100q-45 20 -85.5 28.5t-78.5 8.5q-32 0 -51 -14.5t-19 -34.5t13.5 -29.5t44.5 -21.5l94 -33q73 -26 109.5 -68t36.5 -99q0 -39 -16 -70.5t-45.5 -54t-70.5 -34.5t-90 -12q-137 0 -231 57z" />
    <glyph glyph-name="germandbls.cap_smcp" horiz-adv-x="588" 
d="M90 0v259l-77 -1q-3 12 -4 25t-1 26t1 25t4 24l77 -1v42q0 81 58 122.5t157 41.5q48 0 88 -12.5t68.5 -35t44.5 -54.5t16 -70q0 -30 -8 -56q-58 -19 -58 -54q0 -16 22 -35l29 -26q29 -26 43 -53.5t14 -54.5q0 -28 -12.5 -50.5t-34.5 -39t-52 -25.5t-65 -9q-69 0 -120 21
q1 22 11.5 48.5t24.5 41.5q17 -8 32.5 -11.5t28.5 -3.5q24 0 37.5 9.5t13.5 25.5q0 21 -27 44l-33 28q-28 23 -40.5 41.5t-12.5 44.5t19.5 52.5t53.5 40.5q1 3 1 15q0 35 -22 58.5t-61 23.5q-83 0 -83 -84v-383q-18 -3 -34.5 -4t-33.5 -1t-32.5 1t-32.5 4z" />
    <glyph glyph-name="ugrave.smcp" horiz-adv-x="609" 
d="M541 548v-347q0 -103 -61 -159t-176 -56q-114 0 -175 56t-61 159v347l6 5h48q79 0 79 -84v-268q0 -110 103 -110q104 0 104 110v347q14 2 30.5 3.5t36.5 1.5q38 0 66 -5zM245 807l149 -164q-7 -18 -22.5 -32.5t-32.5 -19.5l-178 136q8 25 33 48t51 32z" />
    <glyph glyph-name="uacute.smcp" horiz-adv-x="609" 
d="M541 548v-347q0 -103 -61 -159t-176 -56q-114 0 -175 56t-61 159v347l6 5h48q79 0 79 -84v-268q0 -110 103 -110q104 0 104 110v347q14 2 30.5 3.5t36.5 1.5q38 0 66 -5zM217 643l150 164q26 -8 50.5 -31t33.5 -49l-179 -136q-40 13 -55 52z" />
    <glyph glyph-name="ucircumflex.smcp" horiz-adv-x="609" 
d="M541 548v-347q0 -103 -61 -159t-176 -56q-114 0 -175 56t-61 159v347l6 5h48q79 0 79 -84v-268q0 -110 103 -110q104 0 104 110v347q14 2 30.5 3.5t36.5 1.5q38 0 66 -5zM397 601l-93 89l-98 -95q-38 14 -59 51l105 135q48 16 109 0l94 -125q-8 -19 -25 -34.5t-33 -20.5z
" />
    <glyph glyph-name="udieresis.smcp" horiz-adv-x="609" 
d="M541 548v-347q0 -103 -61 -159t-176 -56q-114 0 -175 56t-61 159v347l6 5h48q79 0 79 -84v-268q0 -110 103 -110q104 0 104 110v347q14 2 30.5 3.5t36.5 1.5q38 0 66 -5zM341 715q23 14 57 14q32 0 57 -14q8 -22 8 -46q0 -19 -3.5 -32t-12.5 -17.5t-21.5 -6.5t-27.5 -2
q-16 0 -31 3t-26 11q-5 10 -6.5 21.5t-1.5 23.5q0 26 8 45zM147 715q23 14 57 14q32 0 57 -14q8 -22 8 -46q0 -19 -3.5 -32t-12.5 -17.5t-21.5 -6.5t-27.5 -2q-16 0 -31 3t-26 11q-5 10 -6.5 21.5t-1.5 23.5q0 26 8 45z" />
    <glyph glyph-name="yacute.smcp" horiz-adv-x="460" 
d="M274 396l61 152q23 6 51 6t65 -8l6 -7l-162 -376v-163q-26 -5 -65 -5t-65 5v167l-161 370q41 19 77 19q52 0 71 -50l50 -121q22 -56 30 -105h6q34 111 36 116zM148 643l150 164q26 -8 50.5 -31t33.5 -49l-179 -136q-40 13 -55 52z" />
    <glyph glyph-name="ydieresis.smcp" horiz-adv-x="460" 
d="M274 396l61 152q23 6 51 6t65 -8l6 -7l-162 -376v-163q-26 -5 -65 -5t-65 5v167l-161 370q41 19 77 19q52 0 71 -50l50 -121q22 -56 30 -105h6q34 111 36 116zM272 715q23 14 57 14q32 0 57 -14q8 -22 8 -46q0 -19 -3.5 -32t-12.5 -17.5t-21.5 -6.5t-27.5 -2q-16 0 -31 3
t-26 11q-5 10 -6.5 21.5t-1.5 23.5q0 26 8 45zM78 715q23 14 57 14q32 0 57 -14q8 -22 8 -46q0 -19 -3.5 -32t-12.5 -17.5t-21.5 -6.5t-27.5 -2q-16 0 -31 3t-26 11q-5 10 -6.5 21.5t-1.5 23.5q0 26 8 45z" />
    <glyph glyph-name="eth.smcp" horiz-adv-x="604" 
d="M92 -1l-6 6v218h-66q-3 11 -4 23.5t-1 26.5t1 27t4 25h66v218l6 6q78 2 129 3t75 1q78 0 130.5 -21.5t83.5 -59.5t44 -89t13 -111q0 -54 -11 -104t-40 -88t-79 -61t-129 -23q-101 0 -216 3zM215 94l86 1q66 1 98.5 44.5t32.5 134.5q0 179 -131 179h-49t-37 1v-129h111
q5 -25 5 -52t-5 -50h-111v-129z" />
    <glyph glyph-name="thorn.smcp" horiz-adv-x="526" 
d="M210 469l69 1q100 2 159 -46t59 -140t-59.5 -139.5t-158.5 -47.5h-69v-97q-14 -3 -31.5 -4t-36.5 -1q-18 0 -35 1t-29 4v548q12 2 29 3.5t35 1.5q19 0 36.5 -1.5t31.5 -3.5v-79zM210 371v-176q12 1 28.5 1h38.5q43 0 63.5 25.5t20.5 61.5q0 34 -20 60.5t-64 26.5h-38.5
t-28.5 1z" />
    <glyph glyph-name="aogonek.smcp" horiz-adv-x="560" 
d="M209 108l-41 1l-37 -109q-24 -6 -60.5 -6t-57.5 10l-4 6l196 538q40 6 76 6t78 -6l193 -542l-3 -2q-84 -44 -84 -99q0 -39 45 -39q28 0 54 15q27 -25 28 -61q-46 -38 -104 -38t-90 26.5t-32 70.5q0 64 69 121q-24 12 -35 49l-20 60l-41 -1h-130zM203 213l37 1h73
q4 0 15 -0.5t17 -0.5l-21 64q-15 49 -46 167h-5q-30 -111 -45 -158z" />
    <glyph glyph-name="cacute.smcp" horiz-adv-x="542" 
d="M390 316q0 142 -101 142q-117 0 -117 -187q0 -91 34.5 -133t94.5 -42q32 0 69 14t76 44q10 -6 20 -15.5t18 -21t14.5 -24t9.5 -23.5q-95 -84 -229 -84q-66 0 -112 23.5t-75 63t-42.5 91t-13.5 108.5q0 72 19.5 126.5t54 91t81 54.5t100.5 18t96.5 -14t70 -39.5
t42.5 -57.5t15 -68q0 -71 -79 -71q-7 0 -18.5 1t-27.5 3zM209 643l150 164q26 -8 50.5 -31t33.5 -49l-179 -136q-40 13 -55 52z" />
    <glyph glyph-name="ccaron.smcp" horiz-adv-x="542" 
d="M390 316q0 142 -101 142q-117 0 -117 -187q0 -91 34.5 -133t94.5 -42q32 0 69 14t76 44q10 -6 20 -15.5t18 -21t14.5 -24t9.5 -23.5q-95 -84 -229 -84q-66 0 -112 23.5t-75 63t-42.5 91t-13.5 108.5q0 72 19.5 126.5t54 91t81 54.5t100.5 18t96.5 -14t70 -39.5
t42.5 -57.5t15 -68q0 -71 -79 -71q-7 0 -18.5 1t-27.5 3zM198 792l92 -89l100 96q40 -15 59 -52l-107 -136q-23 -7 -54 -6.5t-54 6.5l-95 126q8 19 25.5 34t33.5 21z" />
    <glyph glyph-name="dcaron.smcp" horiz-adv-x="596" 
d="M83 -1l-5 6v538l5 6q78 2 129 3t75 1q80 0 132.5 -22t83.5 -60t43 -89t12 -109q0 -55 -10.5 -105t-39 -87.5t-78.5 -61t-129 -23.5q-101 0 -218 3zM209 98l84 1q66 1 98 43.5t32 131.5q0 176 -130 176h-48t-36 1v-353zM190 792l92 -89l100 96q40 -15 59 -52l-107 -136
q-23 -7 -54 -6.5t-54 6.5l-95 126q8 19 25.5 34t33.5 21z" />
    <glyph glyph-name="ecaron.smcp" horiz-adv-x="520" 
d="M209 158l-1 -54q40 2 65 2h207q0 -29 -2 -44q-12 -63 -80 -63h-244q-35 0 -55.5 20.5t-20.5 55.5v468l5 5h380q4 -19 4 -50t-11 -57h-248l1 -52v-61q23 1 59 1h142q7 -17 7 -51t-7 -53h-201v-67zM181 792l92 -89l100 96q40 -15 59 -52l-107 -136q-23 -7 -54 -6.5t-54 6.5
l-95 126q8 19 25.5 34t33.5 21z" />
    <glyph glyph-name="eogonek.smcp" horiz-adv-x="520" 
d="M209 158l-1 -53v-1q30 3 65 3h207q0 -30 -2 -45q-8 -44 -45 -59q-41 -16 -63 -43t-22 -50q0 -44 45 -44q28 0 54 15q26 -23 29 -61q-48 -38 -106 -38q-57 0 -88.5 26.5t-31.5 71.5q0 69 67 119h-163q-35 0 -55.5 20.5t-20.5 55.5v468l5 5h380q4 -19 4 -49.5t-11 -58.5
h-248l1 -52v-59q23 1 59 1h142q7 -19 7 -53.5t-7 -51.5h-201v-67z" />
    <glyph glyph-name="ncaron.smcp" horiz-adv-x="631" 
d="M548 554l5 -6v-546q-29 -7 -81 -7t-72 5l-147 279q-8 14 -30 62t-27 58l-3 -1q8 -142 8 -208v-190q-27 -5 -62 -5t-61 5v546q37 7 83.5 7t67.5 -5l146 -279q7 -12 59 -128l6 2q-12 180 -12 212v125q0 43 17 58.5t58 15.5h45zM223 792l92 -89l100 96q40 -15 59 -52
l-107 -136q-23 -7 -54 -6.5t-54 6.5l-95 126q8 19 25.5 34t33.5 21z" />
    <glyph glyph-name="sacute.smcp" horiz-adv-x="502" 
d="M22 43q0 13 4 27.5t10.5 28t15.5 25t19 17.5q93 -50 180 -50q35 0 58.5 15.5t23.5 41.5q0 39 -60 60l-96 34q-139 49 -139 152q0 77 59 122.5t163 45.5q98 0 196 -42q0 -66 -45 -100q-45 20 -85.5 28.5t-78.5 8.5q-32 0 -51 -14.5t-19 -34.5t13.5 -29.5t44.5 -21.5
l94 -33q73 -26 109.5 -68t36.5 -99q0 -39 -16 -70.5t-45.5 -54t-70.5 -34.5t-90 -12q-137 0 -231 57zM168 643l150 164q26 -8 50.5 -31t33.5 -49l-179 -136q-40 13 -55 52z" />
    <glyph glyph-name="scaron.smcp" horiz-adv-x="502" 
d="M22 43q0 13 4 27.5t10.5 28t15.5 25t19 17.5q93 -50 180 -50q35 0 58.5 15.5t23.5 41.5q0 39 -60 60l-96 34q-139 49 -139 152q0 77 59 122.5t163 45.5q98 0 196 -42q0 -66 -45 -100q-45 20 -85.5 28.5t-78.5 8.5q-32 0 -51 -14.5t-19 -34.5t13.5 -29.5t44.5 -21.5
l94 -33q73 -26 109.5 -68t36.5 -99q0 -39 -16 -70.5t-45.5 -54t-70.5 -34.5t-90 -12q-137 0 -231 57zM157 792l92 -89l100 96q40 -15 59 -52l-107 -136q-23 -7 -54 -6.5t-54 6.5l-95 126q8 19 25.5 34t33.5 21z" />
    <glyph glyph-name="tcaron.smcp" horiz-adv-x="450" 
d="M294 441l1 -60v-381q-27 -5 -64 -5t-69 5v381l1 60l-55 -1h-99q-4 27 -4 55t4 53h435q7 -21 7 -49q0 -59 -67 -59h-37l-52 1h-1zM134 792l92 -89l100 96q40 -15 59 -52l-107 -136q-23 -7 -54 -6.5t-54 6.5l-95 126q8 19 25.5 34t33.5 21z" />
    <glyph glyph-name="uring.smcp" horiz-adv-x="609" 
d="M541 548v-347q0 -103 -61 -159t-176 -56q-114 0 -175 56t-61 159v347l6 5h48q79 0 79 -84v-268q0 -110 103 -110q104 0 104 110v347q14 2 30.5 3.5t36.5 1.5q38 0 66 -5zM206 628q-36 34 -36 86q0 26 10 48t27 38.5t41 25.5t53 9t53 -9.5t41.5 -26t27 -38.5t9.5 -47
t-9.5 -47t-27 -38.5t-41.5 -26t-53 -9.5q-57 0 -95 35zM265 752q-8 -8 -11 -17.5t-3 -20.5q0 -22 13.5 -37t36.5 -15q22 0 36 15t14 37t-14 37.5t-36 15.5q-10 0 -19.5 -3.5t-16.5 -11.5z" />
    <glyph glyph-name="zacute.smcp" horiz-adv-x="513" 
d="M53 125l201 245q28 33 76 77l-3 3q-55 -7 -142 -7h-126q-5 19 -5 43.5t10 61.5h388q18 -66 18 -86t-15 -39l-201 -243q-32 -39 -71 -75l2 -4q38 3 126 6l53 1q74 2 106 18q8 -29 8 -59t-25 -49t-64 -19h-338q-14 68 -14 78q0 29 16 48zM176 643l150 164q26 -8 50.5 -31
t33.5 -49l-179 -136q-40 13 -55 52z" />
    <glyph glyph-name="zdotaccent.smcp" horiz-adv-x="513" 
d="M53 125l201 245q28 33 76 77l-3 3q-55 -7 -142 -7h-126q-5 19 -5 43.5t10 61.5h388q18 -66 18 -86t-15 -39l-201 -243q-32 -39 -71 -75l2 -4q38 3 126 6l53 1q74 2 106 18q8 -29 8 -59t-25 -49t-64 -19h-338q-14 68 -14 78q0 29 16 48zM196 741q24 13 66.5 13t63.5 -13
q10 -23 10 -52t-10 -52q-23 -14 -65 -14t-65 14q-10 23 -10 52t10 52z" />
    <glyph glyph-name="zcaron.smcp" horiz-adv-x="513" 
d="M53 125l201 245q28 33 76 77l-3 3q-55 -7 -142 -7h-126q-5 19 -5 43.5t10 61.5h388q18 -66 18 -86t-15 -39l-201 -243q-32 -39 -71 -75l2 -4q38 3 126 6l53 1q74 2 106 18q8 -29 8 -59t-25 -49t-64 -19h-338q-14 68 -14 78q0 29 16 48zM165 792l92 -89l100 96
q40 -15 59 -52l-107 -136q-23 -7 -54 -6.5t-54 6.5l-95 126q8 19 25.5 34t33.5 21z" />
    <glyph glyph-name="dotaccent.alt" 
d="M138 411q27 15 61 15q32 0 59 -15q5 -11 7 -25t2 -28q0 -32 -9 -53q-20 -16 -59 -16q-17 0 -29 3t-20 6.5t-12 6.5q-3 5 -5 17t-3 36q0 32 8 53z" />
    </font>
</defs>
</svg>
